<?xml version="1.0" standalone="no"?>
<!DOCTYPE svg PUBLIC "-//W3C//DTD SVG 1.1//EN" "http://www.w3.org/Graphics/SVG/1.1/DTD/svg11.dtd" >
<svg xmlns="http://www.w3.org/2000/svg" xmlns:xlink="http://www.w3.org/1999/xlink" version="1.1">
<metadata>
Created by FontForge 20161003 at Wed Apr 12 15:34:00 2017
 By www-data
Copyright (c) Mark Simonson, 2016. All rights reserved.
</metadata>
<defs>
<font id="MarkSimonsonProximaSoftSemibold" horiz-adv-x="567" >
  <font-face 
    font-family="MarkSimonsonProximaSoftSemibold"
    font-weight="600"
    font-stretch="normal"
    units-per-em="1000"
    panose-1="2 0 5 6 3 0 0 2 0 4"
    ascent="790"
    descent="-210"
    x-height="483"
    cap-height="667"
    bbox="-373 -335 1170 1085"
    underline-thickness="20"
    underline-position="-153"
    unicode-range="U+000D-FB04"
  />
<missing-glyph horiz-adv-x="493" 
d="M82.5 -78.5q-11.5 11.5 -11.5 30.5v758q0 19 11.5 30.5t30.5 11.5h267q19 0 30.5 -11.5t11.5 -30.5v-758q0 -19 -11.5 -30.5t-30.5 -11.5h-267q-19 0 -30.5 11.5zM390 722h-288v-782h288v782z" />
    <glyph glyph-name="f_f_j" unicode="ffj" horiz-adv-x="857" 
d="M216 570.5q-18 -20.5 -18 -60.5v-27h58q19 0 32.5 -13.5t13.5 -32.5t-13.5 -32.5t-32.5 -13.5h-58v-344q0 -22 -15.5 -37.5t-36.5 -15.5q-22 0 -37.5 15.5t-15.5 37.5v344h-40q-19 0 -32.5 13.5t-13.5 32.5t13.5 32.5t32.5 13.5h40v27q0 79 42 123t111 44q26 0 49 -6
q14 -4 23 -14.5t9 -25.5q0 -19 -10.5 -30.5t-30.5 -11.5q-6 0 -11.5 1t-9.5 1q-31 0 -49 -20.5zM524 570.5q-18 -20.5 -18 -60.5v-27h58q19 0 32.5 -13.5t13.5 -32.5t-13.5 -32.5t-32.5 -13.5h-58v-344q0 -22 -15.5 -37.5t-36.5 -15.5q-22 0 -37.5 15.5t-15.5 37.5v344h-40
q-19 0 -32.5 13.5t-13.5 32.5t13.5 32.5t32.5 13.5h40v27q0 79 42 123t111 44q26 0 49 -6q14 -4 23 -14.5t9 -25.5q0 -19 -10.5 -30.5t-30.5 -11.5q-6 0 -11.5 1t-9.5 1q-31 0 -49 -20.5zM690.5 596q-19.5 19 -19.5 46t19.5 46t45.5 19q27 0 46 -19t19 -46t-19 -46t-46 -19
q-26 0 -45.5 19zM617 -196q-17 0 -30 13t-13 31t11.5 31.5t27.5 13.5h3q31 0 49.5 19t18.5 60v464q0 22 15.5 37.5t37.5 15.5q21 0 36.5 -15.5t15.5 -37.5v-464q0 -79 -41 -123.5t-119 -44.5h-12z" />
    <glyph glyph-name="f_j" unicode="fj" horiz-adv-x="549" 
d="M216 570.5q-18 -20.5 -18 -60.5v-27h58q19 0 32.5 -13.5t13.5 -32.5t-13.5 -32.5t-32.5 -13.5h-58v-344q0 -22 -15.5 -37.5t-36.5 -15.5q-22 0 -37.5 15.5t-15.5 37.5v344h-40q-19 0 -32.5 13.5t-13.5 32.5t13.5 32.5t32.5 13.5h40v27q0 79 42 123t111 44q26 0 49 -6
q14 -4 23 -14.5t9 -25.5q0 -19 -10.5 -30.5t-30.5 -11.5q-6 0 -11.5 1t-9.5 1q-31 0 -49 -20.5zM382.5 596q-19.5 19 -19.5 46t19.5 46t45.5 19q27 0 46 -19t19 -46t-19 -46t-46 -19q-26 0 -45.5 19zM309 -196q-17 0 -30 13t-13 31t11.5 31.5t27.5 13.5h3q31 0 49.5 19
t18.5 60v464q0 22 15.5 37.5t37.5 15.5q21 0 36.5 -15.5t15.5 -37.5v-464q0 -79 -41 -123.5t-119 -44.5h-12z" />
    <glyph glyph-name="f_f" unicode="ff" horiz-adv-x="616" 
d="M216 570.5q-18 -20.5 -18 -60.5v-27h58q19 0 32.5 -13.5t13.5 -32.5t-13.5 -32.5t-32.5 -13.5h-58v-344q0 -22 -15.5 -37.5t-36.5 -15.5q-22 0 -37.5 15.5t-15.5 37.5v344h-40q-19 0 -32.5 13.5t-13.5 32.5t13.5 32.5t32.5 13.5h40v27q0 79 42 123t111 44q26 0 49 -6
q14 -4 23 -14.5t9 -25.5q0 -19 -10.5 -30.5t-30.5 -11.5q-6 0 -11.5 1t-9.5 1q-31 0 -49 -20.5zM524 570.5q-18 -20.5 -18 -60.5v-27h58q19 0 32.5 -13.5t13.5 -32.5t-13.5 -32.5t-32.5 -13.5h-58v-344q0 -22 -15.5 -37.5t-36.5 -15.5q-22 0 -37.5 15.5t-15.5 37.5v344h-40
q-19 0 -32.5 13.5t-13.5 32.5t13.5 32.5t32.5 13.5h40v27q0 79 42 123t111 44q26 0 49 -6q14 -4 23 -14.5t9 -25.5q0 -19 -10.5 -30.5t-30.5 -11.5q-6 0 -11.5 1t-9.5 1q-31 0 -49 -20.5z" />
    <glyph glyph-name="fi" unicode="fi" horiz-adv-x="549" 
d="M216 570.5q-18 -20.5 -18 -60.5v-27h58q19 0 32.5 -13.5t13.5 -32.5t-13.5 -32.5t-32.5 -13.5h-58v-344q0 -22 -15.5 -37.5t-36.5 -15.5q-22 0 -37.5 15.5t-15.5 37.5v344h-40q-19 0 -32.5 13.5t-13.5 32.5t13.5 32.5t32.5 13.5h40v27q0 79 42 123t111 44q26 0 49 -6
q14 -4 23 -14.5t9 -25.5q0 -19 -10.5 -30.5t-30.5 -11.5q-6 0 -11.5 1t-9.5 1q-31 0 -49 -20.5zM382.5 596q-19.5 19 -19.5 46t19.5 46t45.5 19q27 0 46 -19t19 -46t-19 -46t-46 -19q-26 0 -45.5 19zM391.5 9.5q-15.5 15.5 -15.5 37.5v389q0 22 15.5 37.5t37.5 15.5
q21 0 36.5 -15.5t15.5 -37.5v-389q0 -22 -15.5 -37.5t-37.5 -15.5q-21 0 -36.5 15.5z" />
    <glyph glyph-name="fl" unicode="fl" horiz-adv-x="549" 
d="M216 570.5q-18 -20.5 -18 -60.5v-27h58q19 0 32.5 -13.5t13.5 -32.5t-13.5 -32.5t-32.5 -13.5h-58v-344q0 -22 -15.5 -37.5t-36.5 -15.5q-22 0 -37.5 15.5t-15.5 37.5v344h-40q-19 0 -32.5 13.5t-13.5 32.5t13.5 32.5t32.5 13.5h40v27q0 79 42 123t111 44q26 0 49 -6
q14 -4 23 -14.5t9 -25.5q0 -19 -10.5 -30.5t-30.5 -11.5q-6 0 -11.5 1t-9.5 1q-31 0 -49 -20.5zM391.5 9.5q-15.5 15.5 -15.5 37.5v573q0 22 15.5 37.5t37.5 15.5q21 0 36.5 -15.5t15.5 -37.5v-573q0 -22 -15.5 -37.5t-36.5 -15.5q-22 0 -37.5 15.5z" />
    <glyph glyph-name="f_f_i" unicode="ffi" horiz-adv-x="857" 
d="M216 570.5q-18 -20.5 -18 -60.5v-27h58q19 0 32.5 -13.5t13.5 -32.5t-13.5 -32.5t-32.5 -13.5h-58v-344q0 -22 -15.5 -37.5t-36.5 -15.5q-22 0 -37.5 15.5t-15.5 37.5v344h-40q-19 0 -32.5 13.5t-13.5 32.5t13.5 32.5t32.5 13.5h40v27q0 79 42 123t111 44q26 0 49 -6
q14 -4 23 -14.5t9 -25.5q0 -19 -10.5 -30.5t-30.5 -11.5q-6 0 -11.5 1t-9.5 1q-31 0 -49 -20.5zM524 570.5q-18 -20.5 -18 -60.5v-27h58q19 0 32.5 -13.5t13.5 -32.5t-13.5 -32.5t-32.5 -13.5h-58v-344q0 -22 -15.5 -37.5t-36.5 -15.5q-22 0 -37.5 15.5t-15.5 37.5v344h-40
q-19 0 -32.5 13.5t-13.5 32.5t13.5 32.5t32.5 13.5h40v27q0 79 42 123t111 44q26 0 49 -6q14 -4 23 -14.5t9 -25.5q0 -19 -10.5 -30.5t-30.5 -11.5q-6 0 -11.5 1t-9.5 1q-31 0 -49 -20.5zM690.5 596q-19.5 19 -19.5 46t19.5 46t45.5 19q27 0 46 -19t19 -46t-19 -46t-46 -19
q-26 0 -45.5 19zM699.5 9.5q-15.5 15.5 -15.5 37.5v389q0 22 15.5 37.5t37.5 15.5q21 0 36.5 -15.5t15.5 -37.5v-389q0 -22 -15.5 -37.5t-37.5 -15.5q-21 0 -36.5 15.5z" />
    <glyph glyph-name="f_f_l" unicode="ffl" horiz-adv-x="857" 
d="M216 570.5q-18 -20.5 -18 -60.5v-27h58q19 0 32.5 -13.5t13.5 -32.5t-13.5 -32.5t-32.5 -13.5h-58v-344q0 -22 -15.5 -37.5t-36.5 -15.5q-22 0 -37.5 15.5t-15.5 37.5v344h-40q-19 0 -32.5 13.5t-13.5 32.5t13.5 32.5t32.5 13.5h40v27q0 79 42 123t111 44q26 0 49 -6
q14 -4 23 -14.5t9 -25.5q0 -19 -10.5 -30.5t-30.5 -11.5q-6 0 -11.5 1t-9.5 1q-31 0 -49 -20.5zM524 570.5q-18 -20.5 -18 -60.5v-27h58q19 0 32.5 -13.5t13.5 -32.5t-13.5 -32.5t-32.5 -13.5h-58v-344q0 -22 -15.5 -37.5t-36.5 -15.5q-22 0 -37.5 15.5t-15.5 37.5v344h-40
q-19 0 -32.5 13.5t-13.5 32.5t13.5 32.5t32.5 13.5h40v27q0 79 42 123t111 44q26 0 49 -6q14 -4 23 -14.5t9 -25.5q0 -19 -10.5 -30.5t-30.5 -11.5q-6 0 -11.5 1t-9.5 1q-31 0 -49 -20.5zM699.5 9.5q-15.5 15.5 -15.5 37.5v573q0 22 15.5 37.5t37.5 15.5q21 0 36.5 -15.5
t15.5 -37.5v-573q0 -22 -15.5 -37.5t-36.5 -15.5q-22 0 -37.5 15.5z" />
    <glyph glyph-name="f_b" unicode="fb" horiz-adv-x="889" 
d="M216 570.5q-18 -20.5 -18 -60.5v-27h58q19 0 32.5 -13.5t13.5 -32.5t-13.5 -32.5t-32.5 -13.5h-58v-344q0 -22 -15.5 -37.5t-36.5 -15.5q-22 0 -37.5 15.5t-15.5 37.5v344h-40q-19 0 -32.5 13.5t-13.5 32.5t13.5 32.5t32.5 13.5h40v27q0 79 42 123t111 44q26 0 49 -6
q14 -4 23 -14.5t9 -25.5q0 -19 -10.5 -30.5t-30.5 -11.5q-6 0 -11.5 1t-9.5 1q-31 0 -49 -20.5zM746.5 464q48.5 -31 76 -88.5t27.5 -134.5q0 -78 -27.5 -135t-76 -87.5t-110.5 -30.5q-46 0 -86.5 20.5t-68.5 57.5v-19q0 -22 -15.5 -37.5t-36.5 -15.5q-22 0 -37.5 15.5
t-15.5 37.5v573q0 22 15.5 37.5t37.5 15.5q21 0 36.5 -15.5t15.5 -37.5v-204q28 38 68.5 58.5t86.5 20.5q62 0 110.5 -31zM704.5 125.5q37.5 44.5 37.5 115.5t-37.5 116t-99.5 45q-36 0 -71 -19t-53 -47v-191q17 -27 52.5 -45.5t71.5 -18.5q62 0 99.5 44.5z" />
    <glyph glyph-name="f_h" unicode="fh" horiz-adv-x="876" 
d="M216 570.5q-18 -20.5 -18 -60.5v-27h58q19 0 32.5 -13.5t13.5 -32.5t-13.5 -32.5t-32.5 -13.5h-58v-344q0 -22 -15.5 -37.5t-36.5 -15.5q-22 0 -37.5 15.5t-15.5 37.5v344h-40q-19 0 -32.5 13.5t-13.5 32.5t13.5 32.5t32.5 13.5h40v27q0 79 42 123t111 44q26 0 49 -6
q14 -4 23 -14.5t9 -25.5q0 -19 -10.5 -30.5t-30.5 -11.5q-6 0 -11.5 1t-9.5 1q-31 0 -49 -20.5zM718.5 9.5q-15.5 15.5 -15.5 37.5v257q0 53 -25.5 75.5t-72.5 22.5q-37 0 -70 -19t-54 -46v-290q0 -22 -15.5 -37.5t-36.5 -15.5q-22 0 -37.5 15.5t-15.5 37.5v573
q0 22 15.5 37.5t37.5 15.5q21 0 36.5 -15.5t15.5 -37.5v-203q27 32 72.5 55t98.5 23q77 0 116.5 -39t39.5 -114v-295q0 -22 -15.5 -37.5t-37.5 -15.5q-21 0 -36.5 15.5z" />
    <glyph glyph-name="f_k" unicode="fk" horiz-adv-x="834" 
d="M216 570.5q-18 -20.5 -18 -60.5v-27h58q19 0 32.5 -13.5t13.5 -32.5t-13.5 -32.5t-32.5 -13.5h-58v-344q0 -22 -15.5 -37.5t-36.5 -15.5q-22 0 -37.5 15.5t-15.5 37.5v344h-40q-19 0 -32.5 13.5t-13.5 32.5t13.5 32.5t32.5 13.5h40v27q0 79 42 123t111 44q26 0 49 -6
q14 -4 23 -14.5t9 -25.5q0 -19 -10.5 -30.5t-30.5 -11.5q-6 0 -11.5 1t-9.5 1q-31 0 -49 -20.5zM798 47q0 -23 -14.5 -38t-36.5 -15q-26 0 -40 17l-157 187l-69 -65v-86q0 -22 -15.5 -37.5t-37.5 -15.5q-21 0 -36.5 15.5t-15.5 37.5v573q0 22 15.5 37.5t37.5 15.5
q21 0 36.5 -15.5t15.5 -37.5v-371l226 227q13 13 34 13q19 0 33 -14.5t14 -34.5q0 -19 -14 -33l-147 -146l159 -180q12 -13 12 -34z" />
    <glyph glyph-name=".notdef" horiz-adv-x="493" 
d="M82.5 -78.5q-11.5 11.5 -11.5 30.5v758q0 19 11.5 30.5t30.5 11.5h267q19 0 30.5 -11.5t11.5 -30.5v-758q0 -19 -11.5 -30.5t-30.5 -11.5h-267q-19 0 -30.5 11.5zM390 722h-288v-782h288v782z" />
    <glyph glyph-name=".null" horiz-adv-x="0" 
 />
    <glyph glyph-name="nonmarkingreturn" unicode="&#xd;" horiz-adv-x="0" 
 />
    <glyph glyph-name="NULL" horiz-adv-x="0" 
 />
    <glyph glyph-name="NULL" horiz-adv-x="0" 
 />
    <glyph glyph-name="space" unicode=" " horiz-adv-x="257" 
 />
    <glyph glyph-name="exclam" unicode="!" horiz-adv-x="245" 
d="M89.5 211q-13.5 13 -14.5 32l-15 366q-1 26 17.5 45t44.5 19t44.5 -18.5t17.5 -45.5l-14 -366q-1 -19 -14.5 -32t-33.5 -13q-19 0 -32.5 13zM73.5 108.5q20.5 20.5 48.5 20.5q29 0 49.5 -20.5t20.5 -49.5q0 -28 -21 -48.5t-49 -20.5t-48.5 20.5t-20.5 48.5
q0 29 20.5 49.5z" />
    <glyph glyph-name="quotedbl" unicode="&#x22;" horiz-adv-x="379" 
d="M89.5 391.5q-7.5 6.5 -9.5 17.5l-5 33q-27 160 -27 176q0 24 17 41.5t42 17.5q24 0 41.5 -17.5t17.5 -41.5q0 -16 -27 -176l-5 -33q-2 -11 -9.5 -17.5t-17.5 -6.5t-17.5 6.5zM255 391.5q-7 6.5 -9 17.5q-13 72 -22.5 136t-9.5 73q0 24 17 41.5t42 17.5q24 0 41 -17.5
t17 -41.5q0 -9 -9.5 -73t-22.5 -136q-2 -11 -8.5 -17.5t-17.5 -6.5t-18 6.5z" />
    <glyph glyph-name="numbersign" unicode="#" horiz-adv-x="606" 
d="M572 481q10 -10 10 -24t-10 -24t-24 -10h-85l-60 -180h65q14 0 24 -10t10 -24q0 -15 -10 -25t-24 -10h-88l-51 -154q-4 -11 -14 -18.5t-22 -7.5q-16 0 -27 11t-11 27q0 6 2 12l44 130h-102l-51 -154q-4 -11 -14 -18.5t-22 -7.5q-16 0 -27 11t-11 27q0 6 2 12l43 130h-59
q-14 0 -24 10t-10 24q0 15 10 25t24 10h83l59 180h-62q-14 0 -24 10t-10 24t10 24t24 10h86l51 156q4 12 14 19t22 7q16 0 27 -11t11 -27q0 -9 -1 -12l-44 -132h101l51 156q4 11 14 18.5t22 7.5q16 0 27 -11t11 -27q0 -6 -2 -12l-44 -132h62q14 0 24 -10zM323 243l60 180
h-101l-59 -180h100z" />
    <glyph glyph-name="dollar" unicode="$" horiz-adv-x="605" 
d="M509.5 56.5q-54.5 -56.5 -161.5 -66.5v-56q0 -17 -11.5 -28.5t-28.5 -11.5q-16 0 -28 11.5t-12 28.5v55q-114 8 -197 72q-10 8 -16 20t-6 25q0 23 16.5 39t39.5 16q19 0 33 -11q58 -44 130 -55v193q-64 16 -108.5 36.5t-74 58.5t-29.5 99q0 51 26 93t74.5 69t111.5 32v58
q0 17 12 28.5t28 11.5q17 0 28.5 -11.5t11.5 -28.5v-60q90 -9 161 -57q11 -8 17.5 -20t6.5 -26q0 -22 -16 -38.5t-39 -16.5q-18 0 -31 10q-44 30 -99 41v-172q65 -18 110.5 -39t75.5 -60t30 -102q0 -81 -54.5 -137.5zM200 446q24 -17 68 -30v156q-43 -5 -67.5 -26.5
t-24.5 -55.5q0 -27 24 -44zM421 127q24 25 24 56q0 32 -24.5 51t-72.5 33v-172q49 7 73 32z" />
    <glyph glyph-name="percent" unicode="%" horiz-adv-x="746" 
d="M106.5 367.5q-37.5 21.5 -58 59t-20.5 83.5q0 47 20.5 85t58.5 60t86 22q49 0 87 -22t59 -60t21 -85q0 -46 -21 -83.5t-59 -59t-87 -21.5t-86.5 21.5zM156.5 2.5q-8.5 8.5 -8.5 19.5q0 7 5 15l397 623q9 13 24 13q12 0 20 -8.5t8 -19.5q0 -9 -4 -16l-399 -622
q-9 -13 -23 -13q-11 0 -19.5 8.5zM257 435q25 29 25 75q0 48 -25 76.5t-64 28.5t-63.5 -29t-24.5 -76q0 -46 25 -75t63 -29q39 0 64 29zM465.5 9.5q-37.5 21.5 -58 59t-20.5 83.5q0 47 20.5 85t58.5 60t86 22t86 -22t59 -60t21 -85q0 -46 -21 -83.5t-58.5 -59t-86.5 -21.5
t-86.5 21.5zM616 77q25 29 25 75q0 48 -25 76.5t-64 28.5t-63.5 -28.5t-24.5 -76.5q0 -46 24.5 -75t63.5 -29t64 29z" />
    <glyph glyph-name="ampersand" unicode="&#x26;" horiz-adv-x="644" 
d="M591 44q0 -21 -15 -35.5t-35 -14.5q-15 0 -29 9q-30 23 -74 62q-85 -77 -194 -77q-94 0 -154.5 49.5t-60.5 140.5q0 70 38.5 114.5t106.5 80.5q-47 84 -47 146q0 44 23.5 80.5t65 57t92.5 20.5q71 0 118 -37t47 -100q0 -47 -22.5 -80.5t-56 -55.5t-87.5 -49
q27 -38 65 -82q29 -36 68 -75q27 43 50 98q5 13 16.5 20.5t25.5 7.5q19 0 32.5 -13t13.5 -32q0 -10 -5 -20q-31 -66 -70 -121q30 -26 68 -54q20 -15 20 -40zM266 417q56 26 85 53t29 65q0 30 -19 47t-48 17q-34 0 -57 -23t-23 -59q0 -39 33 -100zM376 123q-64 61 -86 88
q-42 51 -74 96q-36 -24 -55.5 -52.5t-19.5 -67.5q0 -53 34 -84t82 -31q63 0 119 51z" />
    <glyph glyph-name="quotesingle" unicode="'" horiz-adv-x="214" 
d="M89.5 391.5q-7.5 6.5 -9.5 17.5l-5 33q-27 160 -27 176q0 24 17 41.5t42 17.5q24 0 41.5 -17.5t17.5 -41.5q0 -16 -27 -176l-5 -33q-2 -11 -9.5 -17.5t-17.5 -6.5t-17.5 6.5z" />
    <glyph glyph-name="parenleft" unicode="(" horiz-adv-x="276" 
d="M169 -167q-61 87 -94 194t-33 216t33 216t94 194q13 19 36 19q19 0 31.5 -13t12.5 -31q0 -12 -4 -20q-46 -89 -67.5 -174.5t-21.5 -190.5t21.5 -190t66.5 -174q5 -10 5 -20q0 -19 -12.5 -32t-31.5 -13q-23 0 -36 19z" />
    <glyph glyph-name="parenright" unicode=")" horiz-adv-x="276" 
d="M39 -173q-13 13 -13 32q0 10 5 20q46 89 67.5 174t21.5 190t-21.5 190.5t-67.5 174.5q-5 10 -5 20q0 18 13 31t31 13q23 0 36 -19q61 -87 94.5 -194t33.5 -216t-33.5 -216t-94.5 -194q-13 -19 -36 -19q-18 0 -31 13z" />
    <glyph glyph-name="asterisk" unicode="*" horiz-adv-x="346" 
d="M153.5 378.5q-8.5 8.5 -7.5 19.5l4 90l-75 -49q-8 -4 -15 -4q-10 0 -18 8t-8 18q0 16 14 24l80 41l-80 41q-14 8 -14 24q0 11 8 18.5t18 7.5q7 0 15 -4l75 -48l-4 90q-1 11 7.5 19.5t19.5 8.5q12 0 20 -8t7 -20l-5 -90l75 48q8 4 15 4q11 0 19 -7.5t8 -18.5
q0 -16 -15 -24l-79 -41l79 -41q15 -8 15 -24q0 -11 -8 -18.5t-19 -7.5q-10 0 -15 4l-75 49l5 -90q1 -11 -7.5 -19.5t-19.5 -8.5t-19.5 8.5z" />
    <glyph glyph-name="plus" unicode="+" horiz-adv-x="502" 
d="M288 127q0 -15 -11 -26t-26 -11t-26 11t-11 26v176h-157q-14 0 -24 10t-10 24t10 24t24 10h157v169q0 15 11 26t26 11t26 -11t11 -26v-169h157q14 0 24 -10t10 -24t-10 -24t-24 -10h-157v-176z" />
    <glyph glyph-name="comma" unicode="," horiz-adv-x="245" 
d="M100 -129q-12 0 -20.5 8.5t-8.5 21.5t9 22q19 18 32 38.5t17 38.5q-9 -3 -17 -3q-26 0 -43 17.5t-17 45.5t20 48.5t48 20.5q32 0 55 -24.5t23 -66.5q0 -45 -20.5 -86t-57.5 -73q-8 -8 -20 -8z" />
    <glyph glyph-name="hyphen" unicode="-" horiz-adv-x="300" 
d="M37.5 210q-13.5 13 -13.5 32t13.5 32t31.5 13h162q18 0 31.5 -13t13.5 -32t-13.5 -32t-31.5 -13h-162q-18 0 -31.5 13z" />
    <glyph glyph-name="period" unicode="." horiz-adv-x="245" 
d="M73 108.5q21 20.5 49 20.5q29 0 49.5 -20.5t20.5 -49.5q0 -28 -20.5 -49t-49.5 -21q-28 0 -49 21t-21 49q0 29 21 49.5z" />
    <glyph glyph-name="slash" unicode="/" horiz-adv-x="315" 
d="M23 -15q-11 11 -11 26q0 6 2 12l217 645q4 11 13.5 18t21.5 7q15 0 26 -11t11 -26q0 -6 -2 -12l-217 -645q-4 -11 -13.5 -18t-21.5 -7q-15 0 -26 11z" />
    <glyph glyph-name="zero" unicode="0" horiz-adv-x="616" 
d="M70 500.5q29 78.5 89 127.5t149 49t149 -49t89 -127.5t29 -167.5t-29 -167.5t-89 -128t-149 -49.5t-149 49.5t-89 128t-29 167.5t29 167.5zM420.5 505.5q-35.5 67.5 -112.5 67.5t-112.5 -67.5t-35.5 -172.5t36 -173t112 -68t112 68t36 173t-35.5 172.5z" />
    <glyph glyph-name="one" unicode="1" horiz-adv-x="380" 
d="M209 11.5q-17 17.5 -17 41.5v462l-78 -81q-15 -15 -35 -15t-34.5 14.5t-14.5 34.5q0 19 14 35l149 150q20 20 48 20t48 -20t20 -48v-552q0 -24 -17 -41.5t-41 -17.5q-25 0 -42 17.5z" />
    <glyph glyph-name="two" unicode="2" horiz-adv-x="585" 
d="M52 18q-18 18 -18 43q0 15 7 28t18 21q134 100 204 160t103.5 107.5t33.5 93.5q0 49 -35.5 75.5t-85.5 26.5q-83 0 -149 -50q-14 -11 -32 -11q-22 0 -37 15t-15 37q0 12 5 22.5t14 17.5q44 36 99 54.5t113 18.5q66 0 121 -24t88 -71t33 -111q0 -86 -72 -171t-220 -197
h250q21 0 36.5 -15t15.5 -36q0 -22 -15.5 -37t-36.5 -15h-382q-25 0 -43 18z" />
    <glyph glyph-name="three" unicode="3" horiz-adv-x="574" 
d="M151.5 8q-56.5 20 -97.5 55q-18 16 -18 39q0 22 15 37t37 15q17 0 31 -11q33 -25 72.5 -38t80.5 -13q65 0 102 27.5t37 74.5q0 94 -148 94h-31q-21 0 -36.5 15t-15.5 37q0 21 15.5 36t36.5 15h31q62 0 99.5 22t37.5 66q0 45 -38 69.5t-97 24.5q-77 0 -141 -47
q-13 -10 -30 -10q-20 0 -34.5 14.5t-14.5 34.5q0 21 18 37q88 75 213 75q109 0 175 -48.5t66 -131.5q0 -62 -43.5 -102.5t-101.5 -50.5q35 -3 71 -22.5t60 -55.5t24 -84q0 -56 -31 -100t-87.5 -69t-132.5 -25q-68 0 -124.5 20z" />
    <glyph glyph-name="four" unicode="4" horiz-adv-x="580" 
d="M542.5 239q15.5 -15 15.5 -36q0 -22 -15.5 -37t-36.5 -15h-43v-98q0 -24 -17 -41.5t-41 -17.5q-25 0 -42 17.5t-17 41.5v98h-258q-27 0 -46.5 19t-19.5 47q0 17 11 35l243 374q14 22 36.5 34.5t48.5 12.5q42 0 72 -30t30 -72v-317h43q21 0 36.5 -15zM143 254h203v308z
" />
    <glyph glyph-name="five" unicode="5" horiz-adv-x="600" 
d="M75.5 75q-5.5 11 -5.5 23q0 22 15.5 37.5t37.5 15.5q19 0 33 -11q61 -48 147 -48q62 0 99.5 33.5t37.5 83.5q0 54 -36.5 86.5t-97.5 32.5q-72 0 -124 -42q-17 -14 -41 -14q-26 0 -45 19t-19 45v269q0 30 16 46t46 16h329q21 0 36.5 -15t15.5 -37q0 -21 -15.5 -36
t-36.5 -15h-274v-193q26 26 65.5 42t85.5 16q57 0 105.5 -26t78 -74.5t29.5 -114.5q0 -68 -32 -119.5t-90 -79t-132 -27.5q-130 0 -215 69q-8 7 -13.5 18z" />
    <glyph glyph-name="six" unicode="6" horiz-adv-x="601" 
d="M75 508.5q34 78.5 100 123.5t160 45q90 0 158 -46q11 -7 17 -18.5t6 -24.5q0 -21 -15 -36t-36 -15q-18 0 -29 8q-44 28 -101 28q-54 0 -94 -30t-61 -80.5t-21 -109.5q0 -13 1 -19q25 37 74 65t105 28q61 0 112 -24.5t81 -73.5t30 -117q0 -62 -30.5 -113t-86.5 -81
t-129 -30q-94 0 -155.5 46t-90.5 123.5t-29 174.5q0 98 34 176.5zM405 296.5q-39 30.5 -98 30.5q-42 0 -81 -21.5t-65 -57.5q6 -64 42 -110t107 -46q42 0 72.5 17t46 44t15.5 55q0 58 -39 88.5z" />
    <glyph glyph-name="seven" unicode="7" horiz-adv-x="532" 
d="M167 11q-17 17 -17 41q0 11 5 24l218 488h-300q-21 0 -36.5 15t-15.5 36q0 22 15.5 37t36.5 15h385q23 0 39.5 -16.5t16.5 -39.5q0 -10 -5 -22l-247 -560q-7 -16 -21.5 -25.5t-32.5 -9.5q-24 0 -41 17z" />
    <glyph glyph-name="eight" unicode="8" horiz-adv-x="595" 
d="M84.5 277q42.5 45 107.5 67q-62 20 -100.5 59t-38.5 99q0 58 35 97.5t91 58.5t119 19q62 0 118 -19t91.5 -58.5t35.5 -97.5q0 -60 -39 -99t-101 -59q65 -22 107.5 -67t42.5 -106q0 -57 -34.5 -98.5t-93 -63t-127.5 -21.5q-70 0 -128.5 21t-93 62.5t-34.5 99.5
q0 61 42.5 106zM388.5 549q-35.5 24 -90.5 24q-56 0 -91.5 -24t-35.5 -65t40.5 -63.5t86.5 -30.5q46 8 86 30.5t40 63.5t-35.5 65zM411 240.5q-24 22.5 -56 35t-57 15.5q-26 -3 -58 -15.5t-56 -35t-24 -54.5q0 -42 39.5 -68t98.5 -26q57 0 97 26t40 68q0 32 -24 54.5z" />
    <glyph glyph-name="nine" unicode="9" horiz-adv-x="601" 
d="M91 53.5q-6 11.5 -6 24.5q0 21 15 36t36 15q15 0 28 -8q44 -28 101 -28q58 0 97.5 31t59 81t19.5 107v20q-26 -37 -75 -65.5t-104 -28.5q-61 0 -112 25t-81.5 74t-30.5 117q0 62 30.5 113t86.5 81t129 30q94 0 155.5 -46t90.5 -124t29 -175q0 -98 -34 -176t-100 -123
t-160 -45q-88 0 -158 46q-10 7 -16 18.5zM397.5 527q-36.5 47 -107.5 47q-41 0 -71.5 -17.5t-46 -44t-15.5 -54.5q0 -58 39 -88.5t97 -30.5q43 0 82 21t64 57q-5 63 -41.5 110z" />
    <glyph glyph-name="colon" unicode=":" horiz-adv-x="245" 
d="M73 469.5q21 20.5 49 20.5q29 0 49.5 -20.5t20.5 -49.5q0 -28 -20.5 -49t-49.5 -21q-28 0 -49 21t-21 49q0 29 21 49.5zM73 108.5q21 20.5 49 20.5q29 0 49.5 -20.5t20.5 -49.5q0 -28 -20.5 -49t-49.5 -21q-28 0 -49 21t-21 49q0 29 21 49.5z" />
    <glyph glyph-name="semicolon" unicode=";" horiz-adv-x="245" 
d="M73 371q-21 21 -21 49q0 29 21 49.5t49 20.5q29 0 49.5 -20.5t20.5 -49.5q0 -28 -21 -49t-49 -21t-49 21zM100 -129q-12 0 -20.5 8.5t-8.5 21.5t9 22q19 18 32 38.5t17 38.5q-9 -3 -17 -3q-26 0 -43 17.5t-17 45.5t20 48.5t48 20.5q32 0 55 -24.5t23 -66.5
q0 -45 -20.5 -86t-57.5 -73q-8 -8 -20 -8z" />
    <glyph glyph-name="less" unicode="&#x3c;" horiz-adv-x="502" 
d="M32 305.5q-9 13.5 -9 29.5q0 15 9 28.5t23 20.5l372 174q8 4 15 4q16 0 26.5 -11t10.5 -26q0 -11 -6 -19.5t-16 -13.5l-349 -158l350 -157q9 -4 15 -13t6 -20q0 -15 -10.5 -25.5t-25.5 -10.5q-10 0 -16 3l-372 174q-14 7 -23 20.5z" />
    <glyph glyph-name="equal" unicode="=" horiz-adv-x="502" 
d="M33 405q-10 10 -10 24t10 24t24 10h388q14 0 24 -10t10 -24t-10 -24t-24 -10h-388q-14 0 -24 10zM33 215q-10 10 -10 23q0 14 10 24t24 10h388q14 0 24 -10t10 -24q0 -13 -10 -23t-24 -10h-388q-14 0 -24 10z" />
    <glyph glyph-name="greater" unicode="&#x3e;" horiz-adv-x="502" 
d="M59 108q-15 0 -25.5 10.5t-10.5 25.5q0 11 6 19.5t15 13.5l349 157l-348 158q-10 5 -16 13.5t-6 19.5q0 15 10.5 26t26.5 11q7 0 15 -4l372 -174q14 -7 23 -20.5t9 -28.5q0 -16 -9 -29.5t-23 -20.5l-372 -174q-6 -3 -16 -3z" />
    <glyph glyph-name="question" unicode="?" horiz-adv-x="458" 
d="M176 353q23 28 68 60q36 25 53 43.5t17 44.5q0 31 -24.5 51.5t-70.5 20.5q-63 0 -109 -40q-13 -11 -32 -11q-21 0 -36 14.5t-15 35.5q0 24 18 39q78 66 186 66q62 0 108 -20.5t70.5 -56t24.5 -80.5q0 -39 -15 -67.5t-36 -48t-55 -42.5q-39 -28 -56 -46.5t-17 -44.5
q0 -3 2 -13l1 -10q0 -20 -14 -35t-35 -15q-13 0 -24.5 7t-17.5 19q-14 28 -14 57q0 44 23 72zM176 108.5q21 20.5 49 20.5q29 0 49.5 -20.5t20.5 -49.5q0 -28 -20.5 -49t-49.5 -21q-28 0 -49 21t-21 49q0 29 21 49.5z" />
    <glyph glyph-name="at" unicode="@" horiz-adv-x="783" 
d="M596.5 596q71.5 -42 111 -113t39.5 -156q0 -77 -28 -132t-71 -82.5t-88 -27.5q-42 0 -66.5 22t-28.5 55l-1 6q-27 -37 -67 -60t-83 -23q-70 0 -112 46t-42 120q0 66 33 123t86 90.5t111 33.5q45 0 77.5 -19.5t48.5 -51.5l5 26q3 16 15.5 26t29.5 10q19 0 32.5 -13.5
t13.5 -32.5q0 -7 -1 -10l-43 -205q-2 -12 -2 -23q0 -23 11.5 -35.5t29.5 -12.5q22 0 45 18t39 56t16 96q0 80 -34.5 142t-98 97t-146.5 35q-93 0 -175.5 -49.5t-131.5 -131.5t-49 -174q0 -79 37 -143t101.5 -100.5t145.5 -36.5q91 0 171 47q5 4 11 4q7 0 12 -5t5 -13
q0 -9 -8 -14q-52 -32 -103.5 -43.5t-91.5 -11.5q-89 0 -161.5 41.5t-114 113.5t-41.5 159q0 105 55.5 195.5t147 144.5t194.5 54q93 0 164.5 -42zM502 362q-10 24 -33 42.5t-58 18.5q-43 0 -78 -23.5t-55.5 -62t-20.5 -79.5q0 -44 24.5 -71t66.5 -27q73 0 127 76z" />
    <glyph glyph-name="A" unicode="A" horiz-adv-x="673" 
d="M646 54q0 -25 -17.5 -42.5t-42.5 -17.5q-19 0 -34 10.5t-21 27.5l-35 96h-320l-35 -96q-6 -17 -21 -27.5t-34 -10.5q-25 0 -42.5 17.5t-17.5 42.5q0 6 5 21l209 532q12 29 38 47.5t58 18.5t58 -18.5t38 -47.5l209 -532q5 -15 5 -21zM213 231h246l-123 337z" />
    <glyph glyph-name="B" unicode="B" horiz-adv-x="648" 
d="M87 16q-16 16 -16 46v543q0 30 16 46t46 16h266q59 0 102 -22.5t65.5 -61t22.5 -86.5q0 -60 -33.5 -101.5t-82.5 -51.5q35 -5 64.5 -28.5t47 -59.5t17.5 -76q0 -80 -51.5 -130t-142.5 -50h-275q-30 0 -46 16zM375 391q44 0 69 24t25 62q0 39 -25 63t-69 24h-187v-173h187
zM380 103q48 0 75 24.5t27 68.5q0 39 -27 65.5t-75 26.5h-192v-185h192z" />
    <glyph glyph-name="C" unicode="C" horiz-adv-x="672" 
d="M211.5 31.5q-78.5 43.5 -124.5 122.5t-46 179t46 179t124.5 122.5t174.5 43.5q144 0 234 -99q14 -14 14 -37q0 -22 -16 -38.5t-39 -16.5q-26 0 -42 19q-28 32 -67 50t-84 18q-63 0 -114.5 -31t-81 -86t-29.5 -124t29.5 -124t81 -86t114.5 -31q46 0 85 18t67 50
q17 19 41 19q23 0 39 -16t16 -39t-14 -37q-90 -99 -234 -99q-96 0 -174.5 43.5z" />
    <glyph glyph-name="D" unicode="D" horiz-adv-x="710" 
d="M87 16q-16 16 -16 46v543q0 30 16 46t46 16h186q103 0 182 -42.5t123 -118.5t44 -173t-44 -172.5t-123 -118t-182 -42.5h-186q-30 0 -46 16zM319 103q70 0 122 30.5t79.5 83t27.5 116.5q0 65 -26.5 117.5t-78.5 83t-124 30.5h-131v-461h131z" />
    <glyph glyph-name="E" unicode="E" horiz-adv-x="577" 
d="M87 16q-16 16 -16 46v543q0 30 16 46t46 16h349q21 0 36.5 -15t15.5 -37q0 -21 -15.5 -36t-36.5 -15h-294v-173h287q21 0 36.5 -15t15.5 -36q0 -22 -15.5 -37t-36.5 -15h-287v-185h294q21 0 36.5 -15t15.5 -36q0 -22 -15.5 -37t-36.5 -15h-349q-30 0 -46 16z" />
    <glyph glyph-name="F" unicode="F" horiz-adv-x="562" 
d="M88 11.5q-17 17.5 -17 41.5v552q0 30 16 46t46 16h349q21 0 36.5 -15t15.5 -37q0 -21 -15.5 -36t-36.5 -15h-294v-173h287q21 0 36.5 -15t15.5 -36q0 -22 -15.5 -37t-36.5 -15h-287v-235q0 -24 -17 -41.5t-41 -17.5q-25 0 -42 17.5z" />
    <glyph glyph-name="G" unicode="G" horiz-adv-x="717" 
d="M650 342q16 -16 16 -46v-143q0 -24 -7.5 -42.5t-24.5 -33.5q-103 -90 -243 -90q-97 0 -177 43.5t-126.5 122t-46.5 180.5t46.5 180.5t126.5 121.5t177 43q137 0 227 -90q16 -16 16 -39q0 -22 -15.5 -38t-38.5 -16t-39 16q-30 30 -68 46.5t-82 16.5q-65 0 -117.5 -31
t-82.5 -86t-30 -124t30 -124t82.5 -86.5t117.5 -31.5q47 0 89.5 18t68.5 42v104h-153q-21 0 -36.5 15t-15.5 37q0 21 15.5 36t36.5 15h208q30 0 46 -16z" />
    <glyph glyph-name="H" unicode="H" horiz-adv-x="723" 
d="M552 11.5q-17 17.5 -17 41.5v238h-347v-238q0 -24 -17 -41.5t-41 -17.5q-25 0 -42 17.5t-17 41.5v561q0 24 17 41.5t41 17.5q25 0 42 -17.5t17 -41.5v-220h347v220q0 24 17 41.5t42 17.5q24 0 41 -17.5t17 -41.5v-561q0 -24 -17 -41.5t-42 -17.5q-24 0 -41 17.5z" />
    <glyph glyph-name="I" unicode="I" horiz-adv-x="259" 
d="M88 11.5q-17 17.5 -17 41.5v561q0 24 17 41.5t42 17.5q24 0 41 -17.5t17 -41.5v-561q0 -24 -17 -41.5t-41 -17.5q-25 0 -42 17.5z" />
    <glyph glyph-name="J" unicode="J" horiz-adv-x="481" 
d="M18 72q0 22 15 37t37 15q15 0 28 -8q35 -24 78 -24q54 0 85.5 33t31.5 88v401q0 24 17 41.5t41 17.5q25 0 42 -17.5t17 -41.5v-403q0 -110 -62 -166.5t-163 -56.5q-83 0 -144 41q-23 16 -23 43z" />
    <glyph glyph-name="K" unicode="K" horiz-adv-x="621" 
d="M586 50q0 -23 -15.5 -39.5t-38.5 -16.5q-25 0 -41 17l-244 267l-59 -63v-162q0 -24 -17 -41.5t-42 -17.5q-24 0 -41 17.5t-17 41.5v561q0 24 17 41.5t41 17.5q25 0 42 -17.5t17 -41.5v-267l281 308q17 18 41 18q22 0 38.5 -16t16.5 -38t-15 -37l-224 -235l245 -260
q15 -17 15 -37z" />
    <glyph glyph-name="L" unicode="L" horiz-adv-x="517" 
d="M87 16q-16 16 -16 46v552q0 24 17 41.5t42 17.5q24 0 41 -17.5t17 -41.5v-511h248q21 0 36.5 -15t15.5 -36q0 -22 -15.5 -37t-36.5 -15h-303q-30 0 -46 16z" />
    <glyph glyph-name="M" unicode="M" horiz-adv-x="835" 
d="M664 11.5q-17 17.5 -17 41.5v452l-199 -490q-4 -10 -12 -15.5t-19 -5.5t-19 5.5t-12 15.5l-198 490v-452q0 -24 -17 -41.5t-41 -17.5q-25 0 -42 17.5t-17 41.5v523q0 40 28.5 68.5t68.5 28.5q30 0 54.5 -17t35.5 -44l159 -394l160 394q11 27 35.5 44t54.5 17
q40 0 68.5 -28.5t28.5 -68.5v-523q0 -24 -17 -41.5t-42 -17.5q-24 0 -41 17.5z" />
    <glyph glyph-name="N" unicode="N" horiz-adv-x="720" 
d="M544 2q-15 8 -25 22l-331 462v-433q0 -24 -17 -41.5t-41 -17.5q-25 0 -42 17.5t-17 41.5v543q0 32 22.5 54.5t54.5 22.5q19 0 35 -8.5t27 -23.5l322 -447v420q0 24 17 41.5t41 17.5q25 0 42 -17.5t17 -41.5v-548q0 -29 -21 -50.5t-51 -21.5q-18 0 -33 8z" />
    <glyph glyph-name="O" unicode="O" horiz-adv-x="765" 
d="M84.5 510q43.5 79 121 123.5t176.5 44.5t176.5 -44.5t121 -123.5t43.5 -177t-43.5 -177t-121 -123.5t-176.5 -44.5t-176.5 44.5t-121 123.5t-43.5 177t43.5 177zM575.5 457q-27.5 55 -77.5 86t-116 31t-116 -31t-77.5 -86t-27.5 -124q0 -68 27.5 -123t77.5 -86.5
t116 -31.5t116 31.5t77.5 86.5t27.5 123q0 69 -27.5 124z" />
    <glyph glyph-name="P" unicode="P" horiz-adv-x="608" 
d="M88 11.5q-17 17.5 -17 41.5v552q0 30 16 46t46 16h231q68 0 117 -28t75 -76t26 -105t-26 -105t-75.5 -76t-116.5 -28h-176v-196q0 -24 -17 -41.5t-41 -17.5q-25 0 -42 17.5zM430 535q-32 29 -82 29h-160v-212h160q50 0 82 29t32 77t-32 77z" />
    <glyph glyph-name="Q" unicode="Q" horiz-adv-x="765" 
d="M657 67q13 -15 13 -35q0 -22 -15.5 -37.5t-37.5 -15.5q-11 0 -21.5 5t-17.5 13l-28 31q-74 -40 -168 -40q-99 0 -176.5 44.5t-121 123.5t-43.5 177t43.5 177t121 123.5t176.5 44.5t176.5 -44.5t121 -123.5t43.5 -177q0 -71 -23 -132t-66 -108zM477 112l-51 58
q-13 16 -13 34q0 22 15 37.5t37 15.5q25 0 40 -18l52 -59q46 63 46 153q0 69 -27.5 124t-77.5 86t-116 31t-116 -31t-77.5 -86t-27.5 -124q0 -68 27.5 -123t77.5 -86.5t116 -31.5q52 0 95 20z" />
    <glyph glyph-name="R" unicode="R" horiz-adv-x="628" 
d="M585 47q0 -19 -16 -36t-39 -17q-14 0 -27.5 7t-21.5 18l-157 230h-136v-196q0 -24 -17 -41.5t-41 -17.5q-25 0 -42 17.5t-17 41.5v552q0 30 16 46t46 16h231q65 0 114.5 -26.5t76.5 -74t27 -108.5q0 -77 -39.5 -126.5t-98.5 -65.5l130 -182q11 -16 11 -37zM188 352h160
q50 0 82 29t32 77t-32 77t-82 29h-160v-212z" />
    <glyph glyph-name="S" unicode="S" horiz-adv-x="594" 
d="M42 105q0 23 16 39.5t39 16.5q20 0 34 -11q78 -58 173 -58q67 0 100.5 27t33.5 64q0 28 -19.5 46t-49.5 28.5t-83 24.5q-75 18 -122 37t-81 58.5t-34 104.5q0 55 31 99.5t88.5 70t133.5 25.5q58 0 107 -15t99 -46q11 -7 18 -19t7 -26q0 -22 -16 -38.5t-39 -16.5
q-18 0 -31 10q-35 23 -75.5 35t-79.5 12q-58 0 -90.5 -22.5t-32.5 -60.5q0 -24 19 -40t47.5 -26t80.5 -23q75 -19 123.5 -39t83 -60.5t34.5 -107.5q0 -58 -28 -104.5t-86 -74t-144 -27.5q-139 0 -235 73q-22 17 -22 44z" />
    <glyph glyph-name="T" unicode="T" horiz-adv-x="577" 
d="M247 11.5q-17 17.5 -17 41.5v511h-156q-21 0 -36.5 15t-15.5 36q0 22 15.5 37t36.5 15h429q21 0 36.5 -15t15.5 -37q0 -21 -15.5 -36t-36.5 -15h-156v-511q0 -24 -17 -41.5t-41 -17.5q-25 0 -42 17.5z" />
    <glyph glyph-name="U" unicode="U" horiz-adv-x="719" 
d="M71 614q0 24 17 41.5t42 17.5t42 -17.5t17 -41.5v-347q0 -81 44.5 -128t126.5 -47t126 47t44 128v347q0 24 17 41.5t42 17.5t42 -17.5t17 -41.5v-350q0 -128 -73.5 -202t-214.5 -74q-142 0 -215.5 74t-73.5 201v351z" />
    <glyph glyph-name="V" unicode="V" horiz-adv-x="673" 
d="M277 12.5q-27 18.5 -38 47.5l-207 529q-5 12 -5 22q0 26 18.5 44t43.5 18q19 0 35 -11t23 -29l189 -506l189 506q7 18 23 29t35 11q26 0 44 -18t18 -44q0 -10 -5 -22l-207 -529q-11 -29 -38 -47.5t-59 -18.5t-59 18.5z" />
    <glyph glyph-name="W" unicode="W" horiz-adv-x="903" 
d="M595 11q-21 17 -28 43l-116 438l-115 -438q-7 -26 -28 -43t-49 -17q-27 0 -48.5 16.5t-28.5 41.5l-155 541q-2 10 -2 18q0 26 18.5 44t43.5 18q21 0 38 -13t22 -34l120 -473l128 477q5 19 20.5 31t36.5 12q20 0 35.5 -12t20.5 -31l128 -477l119 473q5 21 22 34t38 13
q26 0 44 -18t18 -44q0 -8 -2 -18l-154 -541q-7 -25 -28.5 -41.5t-48.5 -16.5q-28 0 -49 17z" />
    <glyph glyph-name="X" unicode="X" horiz-adv-x="661" 
d="M638 51q0 -23 -16 -40t-40 -17q-29 0 -44 18l-207 245l-208 -245q-15 -18 -44 -18q-24 0 -40 17t-16 40q0 19 14 36l221 255l-207 238q-13 17 -13 35q0 23 16 40.5t39 17.5q28 0 44 -20l194 -228l193 228q16 20 44 20q23 0 39 -17.5t16 -40.5q0 -18 -13 -35l-207 -238
l221 -255q14 -17 14 -36z" />
    <glyph glyph-name="Y" unicode="Y" horiz-adv-x="636" 
d="M582 587l-205 -310v-224q0 -24 -17 -41.5t-41 -17.5q-25 0 -42 17.5t-17 41.5v224l-206 309q-9 12 -9 31q0 23 16.5 39.5t39.5 16.5q14 0 26.5 -7t20.5 -19l171 -266l169 266q8 12 20.5 19t26.5 7q23 0 39.5 -16.5t16.5 -39.5q0 -18 -9 -30z" />
    <glyph glyph-name="Z" unicode="Z" horiz-adv-x="589" 
d="M57.5 19q-19.5 19 -19.5 47q0 22 13 38l334 460h-295q-21 0 -36.5 15t-15.5 36q0 22 15.5 37t36.5 15h387q27 0 46.5 -19t19.5 -47q0 -22 -13 -38l-334 -460h302q21 0 36.5 -15t15.5 -36q0 -22 -15.5 -37t-36.5 -15h-394q-27 0 -46.5 19z" />
    <glyph glyph-name="bracketleft" unicode="[" horiz-adv-x="264" 
d="M57 -177.5q-13 12.5 -13 30.5v781q0 19 13 31.5t31 12.5h131q15 0 25.5 -10.5t10.5 -25.5t-10.5 -25.5t-25.5 -10.5h-98v-724h98q15 0 25.5 -10.5t10.5 -25.5t-10.5 -25.5t-24.5 -10.5h-132q-18 0 -31 12.5z" />
    <glyph glyph-name="backslash" unicode="\" horiz-adv-x="315" 
d="M244.5 -19q-9.5 7 -13.5 18l-217 645q-2 6 -2 12q0 15 11 26t26 11q12 0 21.5 -7t13.5 -18l217 -645q2 -6 2 -12q0 -15 -11 -26t-26 -11q-12 0 -21.5 7z" />
    <glyph glyph-name="bracketright" unicode="]" horiz-adv-x="264" 
d="M19.5 -179.5q-10.5 10.5 -10.5 25.5t10.5 25.5t25.5 10.5h98v724h-98q-15 0 -25.5 10.5t-10.5 25.5t10.5 25.5t25.5 10.5h131q18 0 31 -12.5t13 -31.5v-781q0 -18 -13 -30.5t-31 -12.5h-132q-14 0 -24.5 10.5z" />
    <glyph glyph-name="asciicircum" unicode="^" horiz-adv-x="437" 
d="M331 348l-113 246l-112 -246q-4 -9 -13 -15t-20 -6q-15 0 -25.5 10.5t-10.5 25.5q0 8 4 16l126 261q7 15 21 24t31 9t31 -9t21 -24l125 -261q4 -8 4 -16q0 -15 -10.5 -25.5t-25.5 -10.5q-23 0 -33 21z" />
    <glyph glyph-name="underscore" unicode="_" horiz-adv-x="564" 
d="M2 -101.5q-11 10.5 -11 25.5t11 25.5t25 10.5h510q14 0 25 -10.5t11 -25.5t-11 -25.5t-25 -10.5h-510q-14 0 -25 10.5z" />
    <glyph glyph-name="grave" unicode="`" horiz-adv-x="240" 
d="M59 649q-11 9 -11 24q0 14 9.5 23.5t22.5 9.5q14 0 24 -10l97 -100q8 -10 8 -19q0 -11 -8 -19t-19 -8t-18 7z" />
    <glyph glyph-name="a" unicode="a" horiz-adv-x="536" 
d="M412 453q56 -42 56 -133v-273q0 -22 -15.5 -37.5t-37.5 -15.5q-21 0 -36.5 15.5t-15.5 37.5v5q-27 -31 -67.5 -47.5t-88.5 -16.5q-41 0 -80 18.5t-63.5 54.5t-24.5 87q0 53 24.5 88t63 52t80.5 17q49 0 89.5 -16t66.5 -46v72q0 42 -31 66t-82 24q-61 0 -113 -36
q-11 -7 -24 -7q-17 0 -29.5 12.5t-12.5 29.5q0 10 5 19.5t13 14.5q77 57 178 57q89 0 145 -42zM314.5 73q30.5 13 48.5 37v73q-18 24 -48.5 37t-66.5 13q-45 0 -74 -24t-29 -63t29 -62.5t74 -23.5q36 0 66.5 13z" />
    <glyph glyph-name="b" unicode="b" horiz-adv-x="581" 
d="M438.5 464q48.5 -31 76 -88.5t27.5 -134.5q0 -78 -27.5 -135t-76 -87.5t-110.5 -30.5q-46 0 -86.5 20.5t-68.5 57.5v-19q0 -22 -15.5 -37.5t-36.5 -15.5q-22 0 -37.5 15.5t-15.5 37.5v573q0 22 15.5 37.5t37.5 15.5q21 0 36.5 -15.5t15.5 -37.5v-204q28 38 68.5 58.5
t86.5 20.5q62 0 110.5 -31zM396.5 125.5q37.5 44.5 37.5 115.5t-37.5 116t-99.5 45q-36 0 -71 -19t-53 -47v-191q17 -27 52.5 -45.5t71.5 -18.5q62 0 99.5 44.5z" />
    <glyph glyph-name="c" unicode="c" horiz-adv-x="497" 
d="M70 372q32 58 89 90.5t129 32.5q93 0 153 -52q8 -6 12.5 -16t4.5 -20q0 -19 -13.5 -33t-33.5 -14q-18 0 -31 11q-37 31 -87 31q-66 0 -106 -44.5t-40 -115.5t40 -116t106 -45q50 0 87 31q13 11 30 11q20 0 34 -13.5t14 -33.5q0 -10 -4.5 -20t-12.5 -16q-60 -52 -153 -52
q-72 0 -129 32.5t-89 90.5t-32 131q0 72 32 130z" />
    <glyph glyph-name="d" unicode="d" horiz-adv-x="581" 
d="M497.5 657.5q15.5 -15.5 15.5 -37.5v-573q0 -22 -15.5 -37.5t-37.5 -15.5q-21 0 -36.5 15.5t-15.5 37.5v18q-28 -36 -68.5 -56.5t-86.5 -20.5q-62 0 -111 30.5t-76.5 87.5t-27.5 135q0 77 27.5 134.5t76.5 88.5t111 31q45 0 85.5 -20.5t69.5 -58.5v204q0 22 15.5 37.5
t36.5 15.5q22 0 37.5 -15.5zM355 99q35 18 53 46v192q-18 28 -53 46.5t-72 18.5q-62 0 -99 -45t-37 -116t37 -115.5t99 -44.5q37 0 72 18z" />
    <glyph glyph-name="e" unicode="e" horiz-adv-x="557" 
d="M69.5 369.5q31.5 57.5 87.5 91.5t126 34t124.5 -32.5t84 -87.5t29.5 -119q0 -23 -16 -36t-46 -13h-311q6 -57 47 -95t107 -38q27 0 56 8.5t54 23.5q9 6 23 6q17 0 29.5 -12.5t12.5 -29.5q0 -21 -19 -35q-70 -47 -167 -47q-72 0 -129.5 31.5t-90.5 89.5t-33 133
q0 70 31.5 127.5zM186 370.5q-35 -38.5 -39 -89.5h272q-1 31 -16 60.5t-45 48.5t-75 19q-62 0 -97 -38.5z" />
    <glyph glyph-name="f" unicode="f" horiz-adv-x="308" 
d="M216 570.5q-18 -20.5 -18 -60.5v-27h58q19 0 32.5 -13.5t13.5 -32.5t-13.5 -32.5t-32.5 -13.5h-58v-344q0 -22 -15.5 -37.5t-36.5 -15.5q-22 0 -37.5 15.5t-15.5 37.5v344h-40q-19 0 -32.5 13.5t-13.5 32.5t13.5 32.5t32.5 13.5h40v27q0 79 42 123t111 44q26 0 49 -6
q14 -4 23 -14.5t9 -25.5q0 -19 -10.5 -30.5t-30.5 -11.5q-6 0 -11.5 1t-9.5 1q-31 0 -49 -20.5z" />
    <glyph glyph-name="g" unicode="g" horiz-adv-x="580" 
d="M496.5 473.5q15.5 -15.5 15.5 -37.5v-411q0 -119 -71.5 -170t-176.5 -51q-53 0 -94.5 11t-79.5 38q-19 14 -19 36q0 18 13 31t31 13q14 0 25 -8q50 -35 124 -35q60 0 101.5 31.5t41.5 99.5v58q-29 -37 -69 -58.5t-86 -21.5q-62 0 -110.5 29t-76 85t-27.5 134
q0 76 27.5 132.5t76 86t110.5 29.5q46 0 86 -20.5t69 -58.5v20q0 22 15.5 37.5t37.5 15.5q21 0 36.5 -15.5zM354 111q35 19 53 46v180q-18 27 -53 46t-71 19q-62 0 -99 -42.5t-37 -112.5t37 -112.5t99 -42.5q36 0 71 19z" />
    <glyph glyph-name="h" unicode="h" horiz-adv-x="568" 
d="M410.5 9.5q-15.5 15.5 -15.5 37.5v257q0 53 -25.5 75.5t-72.5 22.5q-37 0 -70 -19t-54 -46v-290q0 -22 -15.5 -37.5t-36.5 -15.5q-22 0 -37.5 15.5t-15.5 37.5v573q0 22 15.5 37.5t37.5 15.5q21 0 36.5 -15.5t15.5 -37.5v-203q27 32 72.5 55t98.5 23q77 0 116.5 -39
t39.5 -114v-295q0 -22 -15.5 -37.5t-37.5 -15.5q-21 0 -36.5 15.5z" />
    <glyph glyph-name="i" unicode="i" horiz-adv-x="241" 
d="M74.5 596q-19.5 19 -19.5 46t19.5 46t45.5 19q27 0 46 -19t19 -46t-19 -46t-46 -19q-26 0 -45.5 19zM83.5 9.5q-15.5 15.5 -15.5 37.5v389q0 22 15.5 37.5t37.5 15.5q21 0 36.5 -15.5t15.5 -37.5v-389q0 -22 -15.5 -37.5t-37.5 -15.5q-21 0 -36.5 15.5z" />
    <glyph glyph-name="j" unicode="j" horiz-adv-x="241" 
d="M74.5 596q-19.5 19 -19.5 46t19.5 46t45.5 19q27 0 46 -19t19 -46t-19 -46t-46 -19q-26 0 -45.5 19zM1 -196q-17 0 -30 13t-13 31t11.5 31.5t27.5 13.5h3q31 0 49.5 19t18.5 60v464q0 22 15.5 37.5t37.5 15.5q21 0 36.5 -15.5t15.5 -37.5v-464q0 -79 -41 -123.5
t-119 -44.5h-12z" />
    <glyph glyph-name="k" unicode="k" horiz-adv-x="526" 
d="M490 47q0 -23 -14.5 -38t-36.5 -15q-26 0 -40 17l-157 187l-69 -65v-86q0 -22 -15.5 -37.5t-37.5 -15.5q-21 0 -36.5 15.5t-15.5 37.5v573q0 22 15.5 37.5t37.5 15.5q21 0 36.5 -15.5t15.5 -37.5v-371l226 227q13 13 34 13q19 0 33 -14.5t14 -34.5q0 -19 -14 -33
l-147 -146l159 -180q12 -13 12 -34z" />
    <glyph glyph-name="l" unicode="l" horiz-adv-x="241" 
d="M83.5 9.5q-15.5 15.5 -15.5 37.5v573q0 22 15.5 37.5t37.5 15.5q21 0 36.5 -15.5t15.5 -37.5v-573q0 -22 -15.5 -37.5t-36.5 -15.5q-22 0 -37.5 15.5z" />
    <glyph glyph-name="m" unicode="m" horiz-adv-x="833" 
d="M729.5 458.5q35.5 -36.5 35.5 -109.5v-302q0 -22 -15.5 -37.5t-37.5 -15.5q-21 0 -36.5 15.5t-15.5 37.5v268q0 41 -19.5 64t-59.5 23q-33 0 -64 -19t-48 -45v-291q0 -22 -15.5 -37.5t-37.5 -15.5q-21 0 -36.5 15.5t-15.5 37.5v268q0 41 -19.5 64t-60.5 23
q-32 0 -62.5 -19t-48.5 -46v-290q0 -22 -15.5 -37.5t-36.5 -15.5q-22 0 -37.5 15.5t-15.5 37.5v389q0 22 15.5 37.5t36.5 15.5q22 0 37.5 -15.5t15.5 -37.5v-19q18 27 63 52.5t94 25.5q52 0 86 -24t46 -65q23 36 68 62.5t96 26.5q68 0 103.5 -36.5z" />
    <glyph glyph-name="n" unicode="n" 
d="M459.5 455q39.5 -40 39.5 -115v-293q0 -22 -15.5 -37.5t-37.5 -15.5q-21 0 -36.5 15.5t-15.5 37.5v255q0 54 -25 77t-72 23q-38 0 -71 -19t-53 -46v-290q0 -22 -15.5 -37.5t-36.5 -15.5q-22 0 -37.5 15.5t-15.5 37.5v389q0 22 15.5 37.5t36.5 15.5q22 0 37.5 -15.5
t15.5 -37.5v-19q27 32 72 55t98 23q77 0 116.5 -40z" />
    <glyph glyph-name="o" unicode="o" horiz-adv-x="573" 
d="M155.5 22q-56.5 34 -87 92t-30.5 128q0 69 30.5 127t87 92t130.5 34q75 0 131.5 -34t87 -91.5t30.5 -127.5t-30.5 -128t-87 -92t-131.5 -34q-74 0 -130.5 34zM388.5 127.5q37.5 46.5 37.5 114.5q0 67 -37.5 113.5t-102.5 46.5q-64 0 -101.5 -46.5t-37.5 -113.5
q0 -68 37.5 -114.5t101.5 -46.5q65 0 102.5 46.5z" />
    <glyph glyph-name="p" unicode="p" horiz-adv-x="580" 
d="M439.5 464.5q48.5 -30.5 75.5 -87.5t27 -135t-27 -135.5t-75.5 -88t-111.5 -30.5q-46 0 -86 20t-69 59v-204q0 -22 -15.5 -37.5t-36.5 -15.5q-22 0 -37.5 15.5t-15.5 37.5v573q0 22 15.5 37.5t37.5 15.5q21 0 36.5 -15.5t15.5 -37.5v-19q27 37 67.5 57.5t87.5 20.5
q63 0 111.5 -30.5zM396 126q37 45 37 116t-37 115.5t-99 44.5q-36 0 -71 -19t-53 -46v-191q18 -27 53 -46t71 -19q62 0 99 45z" />
    <glyph glyph-name="q" unicode="q" horiz-adv-x="580" 
d="M496.5 473.5q15.5 -15.5 15.5 -37.5v-573q0 -22 -15.5 -37.5t-37.5 -15.5q-21 0 -36.5 15.5t-15.5 37.5v204q-29 -39 -69 -59t-86 -20q-63 0 -111.5 30.5t-75.5 88t-27 135.5t27 135t75.5 87.5t111.5 30.5q47 0 87.5 -20.5t67.5 -57.5v19q0 22 15.5 37.5t36.5 15.5
q22 0 37.5 -15.5zM354 100q35 19 53 46v191q-18 27 -53 46t-71 19q-62 0 -99 -44.5t-37 -115.5t37 -116t99 -45q36 0 71 19z" />
    <glyph glyph-name="r" unicode="r" horiz-adv-x="347" 
d="M326 477q11 -14 11 -35q0 -19 -14 -32.5t-40 -17.5q-30 -4 -62.5 -21.5t-47.5 -41.5v-282q0 -22 -15.5 -37.5t-36.5 -15.5q-22 0 -37.5 15.5t-15.5 37.5v389q0 22 15.5 37.5t36.5 15.5q22 0 37.5 -15.5t15.5 -37.5v-24q20 26 45 46t48 27q18 6 28 6q21 0 32 -14z" />
    <glyph glyph-name="s" unicode="s" horiz-adv-x="472" 
d="M40.5 55q-5.5 10 -5.5 21q0 19 13 32t32 13q13 0 25 -7q30 -20 64.5 -31.5t68.5 -11.5q46 0 70.5 15.5t24.5 43.5q0 29 -28 43.5t-82 26.5q-57 12 -93.5 25.5t-62.5 43t-26 79.5q0 40 22.5 73.5t65.5 53.5t102 20q91 0 161 -47q19 -14 19 -35q0 -17 -12.5 -29.5
t-29.5 -12.5q-13 0 -23 7q-51 33 -114 33q-42 0 -66 -14.5t-24 -39.5t26 -38t79 -25q57 -12 95 -26.5t65 -45.5t27 -84q0 -66 -53 -108t-148 -42q-103 0 -178 51q-9 6 -14.5 16z" />
    <glyph glyph-name="t" unicode="t" horiz-adv-x="319" 
d="M298 71.5q12 -12.5 12 -31.5q0 -15 -7.5 -25t-20.5 -15q-29 -12 -69 -12q-61 0 -92.5 32t-31.5 92v279h-40q-19 0 -32.5 13.5t-13.5 32.5t13.5 32.5t32.5 13.5h40v85q0 22 15.5 37.5t37.5 15.5q21 0 36.5 -15.5t15.5 -37.5v-85h58q19 0 32.5 -13.5t13.5 -32.5
t-13.5 -32.5t-32.5 -13.5h-58v-253q0 -26 12 -41.5t34 -15.5q7 0 14 1.5t12 1.5q20 0 32 -12.5z" />
    <glyph glyph-name="u" unicode="u" 
d="M483.5 473.5q15.5 -15.5 15.5 -37.5v-389q0 -22 -15.5 -37.5t-36.5 -15.5q-22 0 -37.5 15.5t-15.5 37.5v16q-30 -32 -74 -53.5t-97 -21.5q-77 0 -116 39t-39 114v295q0 22 15.5 37.5t37.5 15.5q21 0 36.5 -15.5t15.5 -37.5v-257q0 -53 25 -75.5t72 -22.5q38 0 71 18
t53 45v292q0 22 15.5 37.5t36.5 15.5q22 0 37.5 -15.5z" />
    <glyph glyph-name="v" unicode="v" horiz-adv-x="503" 
d="M467 474q15 -15 15 -37q0 -8 -4 -20l-152 -373q-9 -23 -29 -36.5t-45 -13.5t-45.5 13.5t-29.5 36.5l-152 374q-4 12 -4 19q0 22 15 37t36 15q16 0 30 -9.5t19 -23.5l130 -336l130 336q5 14 19 23.5t30 9.5q22 0 37 -15z" />
    <glyph glyph-name="w" unicode="w" horiz-adv-x="754" 
d="M501 8q-19 14 -26 37l-98 309l-98 -309q-7 -23 -26 -37t-43 -14t-43 14t-26 37l-117 377q-2 8 -2 15q0 22 15 37t36 15q18 0 31.5 -10.5t18.5 -26.5l93 -320l103 315q6 19 22 30.5t36 11.5t36 -11.5t22 -30.5l103 -315l93 320q5 16 18.5 26.5t31.5 10.5q21 0 36 -15
t15 -37q0 -7 -2 -15l-117 -377q-7 -23 -26 -37t-43 -14t-43 14z" />
    <glyph glyph-name="x" unicode="x" horiz-adv-x="496" 
d="M470 42q0 -17 -12.5 -32.5t-35.5 -15.5q-10 0 -20.5 4.5t-16.5 12.5l-137 169l-136 -166q-16 -20 -38 -20q-23 0 -35.5 15.5t-12.5 32.5t11 30l149 179l-139 158q-5 6 -8.5 14.5t-3.5 15.5q0 19 14.5 34.5t34.5 15.5q22 0 35 -16l129 -151l129 151q13 16 35 16
q20 0 34.5 -15.5t14.5 -34.5q0 -7 -3.5 -15.5t-8.5 -14.5l-139 -158l149 -179q11 -13 11 -30z" />
    <glyph glyph-name="y" unicode="y" horiz-adv-x="503" 
d="M63 -116.5q15 13.5 35 13.5h5q26 0 42.5 9.5t26.5 32.5l24 55l-172 424q-3 9 -3 19q0 22 15 37t36 15q16 0 30 -9.5t19 -23.5l130 -335l130 335q5 14 19 23.5t30 9.5q22 0 37 -15t15 -37q0 -8 -4 -20l-206 -504q-24 -59 -65 -83.5t-101 -25.5q-9 0 -15 1
q-18 2 -30.5 14.5t-12.5 31.5t15 32.5z" />
    <glyph glyph-name="z" unicode="z" horiz-adv-x="476" 
d="M55.5 15.5q-15.5 15.5 -15.5 37.5q0 19 11 33l234 305h-199q-19 0 -32.5 13.5t-13.5 32.5t13.5 32.5t32.5 13.5h293q21 0 36.5 -15t15.5 -37q0 -16 -11 -31l-236 -309h205q19 0 32.5 -13t13.5 -32t-13.5 -32.5t-32.5 -13.5h-296q-22 0 -37.5 15.5z" />
    <glyph glyph-name="braceleft" unicode="{" horiz-adv-x="276" 
d="M128.5 -171.5q-32.5 18.5 -52.5 52t-20 77.5v187q0 23 -9 40t-26 24q-11 5 -17.5 14t-6.5 21t6.5 21t17.5 14q17 7 26 24t9 40v186q0 44 20 78t52.5 52.5t69.5 18.5h35q14 0 24.5 -10.5t10.5 -25.5t-10.5 -25.5t-24.5 -10.5h-35q-27 0 -45.5 -22t-18.5 -55v-196
q0 -69 -46 -89q46 -20 46 -89v-196q0 -33 18.5 -55t45.5 -22h35q14 0 24.5 -10.5t10.5 -25.5q0 -16 -10 -26t-25 -10h-35q-37 0 -69.5 18.5z" />
    <glyph glyph-name="bar" unicode="|" horiz-adv-x="214" 
d="M81.5 -15q-10.5 11 -10.5 25v647q0 14 10.5 25t25.5 11t25.5 -11t10.5 -25v-647q0 -14 -10.5 -25t-25.5 -11t-25.5 11z" />
    <glyph glyph-name="braceright" unicode="}" horiz-adv-x="276" 
d="M43 -190q-14 0 -24.5 10t-10.5 26q0 15 10.5 25.5t24.5 10.5h35q27 0 45.5 22t18.5 55v196q0 69 46 89q-46 20 -46 89v196q0 33 -18.5 55t-45.5 22h-35q-14 0 -24.5 10.5t-10.5 25.5t10.5 25.5t24.5 10.5h35q37 0 69.5 -18.5t52.5 -52.5t20 -78v-186q0 -23 9 -40t26 -24
q11 -5 17.5 -14t6.5 -21t-6.5 -21t-17.5 -14q-17 -7 -26 -24t-9 -40v-187q0 -44 -20 -77.5t-52.5 -52t-69.5 -18.5h-35z" />
    <glyph glyph-name="asciitilde" unicode="~" horiz-adv-x="507" 
d="M468 656.5q11 -12.5 9 -28.5q-11 -98 -42.5 -154.5t-98.5 -56.5q-34 0 -56 16.5t-33 38.5t-24 58t-23 52.5t-29 16.5q-27 0 -43 -40t-25 -112q-1 -14 -12 -23.5t-25 -9.5q-17 0 -28 13t-9 29q12 97 44 153.5t98 56.5q34 0 56 -16t33.5 -38.5t23.5 -58.5t22.5 -53
t29.5 -17q51 0 68 153q1 14 12 23.5t25 9.5q16 0 27 -12.5z" />
    <glyph glyph-name="uni00A0" unicode="&#xa0;" horiz-adv-x="257" 
 />
    <glyph glyph-name="exclamdown" unicode="&#xa1;" horiz-adv-x="245" 
d="M171 472.5q21 -20.5 21 -48.5t-20.5 -49t-49.5 -21q-28 0 -48.5 20.5t-20.5 49.5q0 28 20.5 48.5t48.5 20.5t49 -20.5zM89.5 271q13.5 13 33.5 13q19 0 32.5 -13t14.5 -32l15 -365q1 -26 -17.5 -45t-44.5 -19t-44.5 18.5t-17.5 45.5l14 365q1 19 14.5 32z" />
    <glyph glyph-name="cent" unicode="&#xa2;" horiz-adv-x="497" 
d="M444 109.5q14 -13.5 14 -33.5q0 -10 -4.5 -20t-12.5 -16q-48 -42 -117 -50v-57q0 -16 -11.5 -27.5t-27.5 -11.5t-27.5 11.5t-11.5 27.5v58q-61 9 -108.5 43.5t-73.5 88t-26 119.5q0 65 26 119t73.5 88t108.5 43v40q0 16 11.5 27.5t27.5 11.5t27.5 -11.5t11.5 -27.5v-39
q69 -8 117 -50q8 -6 12.5 -16t4.5 -20q0 -19 -13.5 -33t-33.5 -14q-18 0 -31 11q-25 21 -56 28v-315q31 7 56 28q13 11 30 11q20 0 34 -13.5zM173.5 144q26.5 -41 72.5 -56v307q-46 -14 -72.5 -55t-26.5 -98t26.5 -98z" />
    <glyph glyph-name="sterling" unicode="&#xa3;" horiz-adv-x="536" 
d="M501 92q15 -15 15 -37q0 -15 -8 -27t-21 -19q-42 -22 -104 -22q-31 0 -53 6.5t-50 18.5q-25 11 -40.5 15.5t-36.5 4.5q-20 0 -42 -8t-52 -28q-7 -5 -18 -5q-19 0 -32.5 13.5t-13.5 32.5q0 12 6 23t16 18q50 36 74 68.5t24 65.5q0 28 -13 56h-102q-14 0 -24.5 10.5
t-10.5 24.5t10.5 24.5t24.5 10.5h54q-28 37 -43 67t-15 69q0 58 33 104.5t87.5 72.5t114.5 26q118 0 185 -70q14 -16 14 -36q0 -22 -15 -37.5t-37 -15.5q-25 0 -41 19q-37 44 -93 44q-51 0 -86 -30t-35 -79q0 -33 12 -57.5t35 -55.5l15 -21h118q14 0 24.5 -10.5t10.5 -24.5
t-10.5 -24.5t-24.5 -10.5h-87q3 -13 3 -29q0 -38 -19.5 -69t-50.5 -51q24 8 51 8q20 0 36 -4.5t38 -14.5q18 -8 32 -12.5t32 -4.5q28 0 55 12q8 4 21 4q22 0 37 -15z" />
    <glyph glyph-name="currency" unicode="&#xa4;" horiz-adv-x="612" 
d="M562 139q13 -13 13 -31t-13 -31t-32 -13q-18 0 -31 13l-51 51q-61 -39 -142 -39t-142 39l-51 -51q-13 -13 -31 -13q-19 0 -32 13t-13 31t13 31l51 51q-43 61 -43 143t43 143l-51 51q-13 13 -13 31t13 31t32 13q18 0 31 -13l52 -52q59 39 141 39t141 -39l52 52
q13 13 31 13q19 0 32 -13t13 -31t-13 -31l-51 -51q43 -61 43 -143t-43 -143zM410 226.5q38 43.5 38 106.5q0 62 -38 105t-104 43t-104 -43t-38 -105q0 -63 38 -106.5t104 -43.5t104 43.5z" />
    <glyph glyph-name="yen" unicode="&#xa5;" horiz-adv-x="637" 
d="M574.5 656.5q16.5 -16.5 16.5 -39.5q0 -18 -9 -30l-161 -243h166q14 0 24 -10t10 -24q0 -13 -10 -23t-24 -10h-210v-92h210q14 0 24 -10t10 -24q0 -13 -10 -23t-24 -10h-210v-65q0 -24 -17 -41.5t-41 -17.5q-25 0 -42 17.5t-17 41.5v65h-209q-14 0 -24 10t-10 24
q0 13 10 23t24 10h209v92h-209q-14 0 -24 10t-10 23q0 14 10 24t24 10h165l-161 242q-10 13 -10 31q0 23 16.5 39.5t39.5 16.5q14 0 26.5 -7t20.5 -19l171 -266l169 266q8 12 20.5 19t26.5 7q23 0 39.5 -16.5z" />
    <glyph glyph-name="brokenbar" unicode="&#xa6;" horiz-adv-x="214" 
d="M81.5 376q-10.5 11 -10.5 25v256q0 14 10.5 25t25.5 11t25.5 -11t10.5 -25v-256q0 -14 -10.5 -25t-25.5 -11t-25.5 11zM81.5 -15q-10.5 11 -10.5 25v256q0 14 10.5 25t25.5 11t25.5 -11t10.5 -25v-256q0 -14 -10.5 -25t-25.5 -11t-25.5 11z" />
    <glyph glyph-name="section" unicode="&#xa7;" horiz-adv-x="477" 
d="M411 147q23 -29 23 -76q0 -71 -55.5 -111.5t-145.5 -40.5q-104 0 -180 57q-16 13 -16 32q0 17 12 28.5t28 11.5q14 0 24 -8q63 -47 132 -47q45 0 72.5 18.5t27.5 51.5q0 31 -28.5 46t-88.5 29q-57 15 -91 28.5t-59 42t-25 76.5t30.5 80t74.5 46q-105 37 -105 125
q0 39 23.5 71t66.5 51t100 19q96 0 164 -48q15 -12 15 -31q0 -16 -11 -27t-27 -11q-12 0 -21 6q-26 18 -56 27t-60 9q-42 0 -67.5 -17.5t-25.5 -47.5q0 -27 26 -39.5t85 -26.5q56 -12 92.5 -26t62.5 -43.5t26 -80.5q0 -42 -22.5 -75t-64.5 -53q41 -17 64 -46zM163 350.5
q-21 -20.5 -21 -51.5q0 -35 30 -50.5t90 -29.5q35 15 52 35t17 49q0 34 -26 52t-70 29q-51 -13 -72 -33.5z" />
    <glyph glyph-name="dieresis" unicode="&#xa8;" horiz-adv-x="419" 
d="M63 581q-17 17 -17 42q0 24 17 41t42 17q24 0 41 -17t17 -41q0 -25 -17 -42t-41 -17q-25 0 -42 17zM272.5 581q-17.5 17 -17.5 42q0 24 17.5 41t41.5 17t41.5 -17t17.5 -41q0 -25 -17.5 -42t-41.5 -17t-41.5 17z" />
    <glyph glyph-name="copyright" unicode="&#xa9;" horiz-adv-x="778" 
d="M90.5 507q46.5 79 125.5 125.5t173 46.5t173 -46.5t125.5 -125.5t46.5 -173t-46.5 -173t-125.5 -125.5t-173 -46.5q-93 0 -172.5 46.5t-126 126t-46.5 172.5q0 94 46.5 173zM658 489.5q-42 71.5 -113.5 113.5t-155.5 42t-155.5 -42t-113.5 -113.5t-42 -155.5t42 -155.5
t113.5 -113.5t155.5 -42t155.5 42t113.5 113.5t42 155.5t-42 155.5zM213 443q28 48 75.5 75.5t104.5 27.5q85 0 141 -59q4 -4 4 -12q0 -10 -6 -15.5t-14 -5.5t-15 7q-20 22 -49.5 35t-60.5 13q-45 0 -83 -22t-60.5 -61.5t-22.5 -90.5q0 -50 22.5 -90t61 -63t82.5 -23
q31 0 60.5 13t49.5 35q7 7 15 7q9 0 14.5 -6t5.5 -15q0 -8 -4 -12q-56 -59 -141 -59q-57 0 -104.5 28t-75.5 76.5t-28 108.5t28 108z" />
    <glyph glyph-name="ordfeminine" unicode="&#xaa;" horiz-adv-x="382" 
d="M288.5 620q38.5 -28 38.5 -91v-170q0 -16 -11.5 -27.5t-27.5 -11.5q-15 0 -26 11.5t-12 27.5q-37 -41 -104 -41q-44 0 -77.5 27.5t-33.5 76.5t33.5 75.5t77.5 26.5q68 0 104 -40v46q0 27 -20.5 43t-52.5 16q-39 0 -77 -26q-6 -5 -16 -5q-12 0 -20.5 8t-8.5 20q0 15 12 24
q56 38 122 38q61 0 99.5 -28zM219 376q20 9 31 24v44q-11 15 -31 23.5t-42 8.5q-28 0 -46.5 -15t-18.5 -39q0 -25 18.5 -40t46.5 -15q22 0 42 9z" />
    <glyph glyph-name="guillemotleft" unicode="&#xab;" horiz-adv-x="489" 
d="M184 70l-115 129q-19 22 -19 44q0 24 19 44l115 127q10 12 28 12q15 0 25.5 -11t10.5 -26t-9 -24l-110 -122l111 -124q9 -9 9 -25q0 -15 -11 -26t-26 -11t-28 13zM354 70l-115 129q-19 22 -19 44q0 24 19 44l115 127q10 12 28 12q15 0 25.5 -11t10.5 -26t-9 -24
l-110 -122l111 -124q9 -9 9 -25q0 -15 -11 -26t-26 -11t-28 13z" />
    <glyph glyph-name="logicalnot" unicode="&#xac;" horiz-adv-x="510" 
d="M462.5 209.5q-10.5 -10.5 -24.5 -10.5t-24.5 10.5t-10.5 24.5v161h-346q-14 0 -24 10t-10 24t10 24t24 10h354q30 0 46 -16t16 -46v-167q0 -14 -10.5 -24.5z" />
    <glyph glyph-name="uni00AD" unicode="&#xad;" horiz-adv-x="300" 
d="M37.5 210q-13.5 13 -13.5 32t13.5 32t31.5 13h162q18 0 31.5 -13t13.5 -32t-13.5 -32t-31.5 -13h-162q-18 0 -31.5 13z" />
    <glyph glyph-name="registered" unicode="&#xae;" horiz-adv-x="494" 
d="M63.5 571.5q28.5 48.5 77 77t106.5 28.5t106.5 -28.5t77 -77t28.5 -106.5t-28.5 -106.5t-77 -77t-106.5 -28.5t-106.5 28.5t-77 77t-28.5 106.5t28.5 106.5zM403.5 556.5q-24.5 41.5 -66 65.5t-90.5 24q-50 0 -91.5 -24t-66 -65.5t-24.5 -91.5q0 -49 24.5 -91t66 -66.5
t91.5 -24.5q49 0 90.5 24.5t66 66.5t24.5 91q0 50 -24.5 91.5zM250 439h-51v-84q0 -7 -4.5 -11.5t-11.5 -4.5t-12 4.5t-5 11.5v211q0 8 6 14t14 6h79q32 0 55 -20.5t23 -53.5q0 -31 -18 -49t-37 -22l52 -76q3 -4 3 -9q0 -7 -5.5 -12.5t-12.5 -5.5q-9 0 -14 8zM295.5 544
q-13.5 13 -30.5 13h-66v-88h66q17 0 30.5 12.5t13.5 30.5q0 19 -13.5 32z" />
    <glyph glyph-name="macron" unicode="&#xaf;" horiz-adv-x="363" 
d="M23 575q-9 9 -9 22t9 22t22 9h273q13 0 22 -9t9 -22t-9 -22t-22 -9h-273q-13 0 -22 9z" />
    <glyph glyph-name="degree" unicode="&#xb0;" horiz-adv-x="302" 
d="M85.5 435q-29.5 17 -47 47t-17.5 65t17.5 65t47 47.5t64.5 17.5t65 -17.5t47.5 -47.5t17.5 -65t-17.5 -65t-47.5 -47t-65 -17t-64.5 17zM102 596.5q-20 -20.5 -20 -49.5t20 -49t48 -20q29 0 49.5 20.5t20.5 48.5q0 29 -20.5 49.5t-49.5 20.5q-28 0 -48 -20.5z" />
    <glyph glyph-name="plusminus" unicode="&#xb1;" horiz-adv-x="502" 
d="M288 148q0 -15 -11 -26t-26 -11t-26 11t-11 26v177h-157q-14 0 -24 10t-10 23q0 14 10 24t24 10h157v170q0 15 11 26t26 11t26 -11t11 -26v-170h157q14 0 24 -10t10 -23q0 -14 -10 -24t-24 -10h-157v-177zM33 10q-10 10 -10 24q0 13 10 23t24 10h388q14 0 24 -10t10 -24
q0 -13 -10 -23t-24 -10h-388q-14 0 -24 10z" />
    <glyph glyph-name="uni00B2" unicode="&#xb2;" horiz-adv-x="353" 
d="M23.5 432.5q-11.5 11.5 -11.5 27.5q0 19 17 31q82 56 126.5 92t64 63t19.5 53q0 31 -21.5 47t-53.5 16q-50 0 -92 -32q-10 -8 -20 -8q-14 0 -23.5 10t-9.5 24q0 16 12 26q56 45 135 45q66 0 109.5 -32t43.5 -90q0 -51 -44.5 -101.5t-139.5 -117.5h160q13 0 23 -9.5
t10 -22.5t-9.5 -23t-23.5 -10h-244q-16 0 -27.5 11.5z" />
    <glyph glyph-name="uni00B3" unicode="&#xb3;" horiz-adv-x="373" 
d="M35 458q-12 10 -12 27q0 14 10 23.5t24 9.5q12 0 20 -6q43 -33 95 -33q39 0 60.5 15.5t21.5 41.5q0 57 -95 57h-17q-13 0 -22.5 9.5t-9.5 22.5t9.5 22t22.5 9h16q89 0 89 53q0 25 -22.5 39t-57.5 14q-49 0 -89 -30q-7 -6 -19 -6q-13 0 -22 9t-9 22q0 15 12 25
q57 45 135 45q70 0 111 -29.5t41 -78.5q0 -37 -26.5 -61.5t-62.5 -30.5q35 -3 65.5 -28t30.5 -68q0 -52 -43.5 -84.5t-115.5 -32.5q-85 0 -140 44z" />
    <glyph glyph-name="acute" unicode="&#xb4;" horiz-adv-x="240" 
d="M58 550q-11 0 -19 8t-8 19q0 9 8 19l97 100q10 10 24 10q13 0 22.5 -9.5t9.5 -23.5q0 -15 -11 -24l-105 -92q-7 -7 -18 -7z" />
    <glyph glyph-name="uni00B5" unicode="&#xb5;" horiz-adv-x="581" 
d="M561.5 63.5q9.5 -13.5 9.5 -29.5q0 -19 -13 -32t-31 -14h-9q-97 0 -119 86q-25 -38 -62.5 -62t-80.5 -24q-32 0 -52.5 10t-30.5 26v-161q0 -22 -15.5 -37.5t-37.5 -15.5q-21 0 -36.5 15.5t-15.5 37.5v573q0 22 15.5 37.5t37.5 15.5q21 0 36.5 -15.5t15.5 -37.5v-257
q0 -99 98 -99q37 0 70 18.5t53 45.5v292q0 22 15.5 37.5t36.5 15.5q22 0 37.5 -15.5t15.5 -37.5v-305q0 -21 8 -34.5t22 -15.5l6 -1q17 -3 26.5 -16.5z" />
    <glyph glyph-name="paragraph" unicode="&#xb6;" horiz-adv-x="449" 
d="M345 -97.5q-8 8.5 -8 19.5v690h-83v-690q0 -11 -8 -19.5t-20 -8.5q-11 0 -19 8.5t-8 19.5v401q-47 0 -86.5 23t-62.5 62.5t-23 86.5t23 86.5t62.5 62.5t86.5 23h131q30 0 46 -16t16 -46v-683q0 -11 -8 -19.5t-19 -8.5q-12 0 -20 8.5z" />
    <glyph glyph-name="periodcentered" unicode="&#xb7;" horiz-adv-x="245" 
d="M73 195.5q-21 20.5 -21 48.5q0 29 21 49.5t49 20.5q29 0 49.5 -20.5t20.5 -49.5q0 -28 -21 -48.5t-49 -20.5t-49 20.5z" />
    <glyph glyph-name="cedilla" unicode="&#xb8;" horiz-adv-x="214" 
d="M14 -172q-14 7 -14 22q0 11 7.5 18.5t17.5 7.5q6 0 13 -4q32 -18 65 -18q23 0 39.5 9.5t16.5 26.5q0 30 -33 30q-17 0 -27 -9q-7 -5 -16 -5q-12 0 -20 8t-8 20q0 4 2 10l25 67h55l-26 -64q16 11 36 11q29 0 48 -19.5t19 -49.5q0 -37 -31 -60t-77 -23q-52 0 -92 22z" />
    <glyph glyph-name="uni00B9" unicode="&#xb9;" horiz-adv-x="254" 
d="M125 427q-12 12 -12 29v261l-47 -48q-9 -10 -24 -10q-13 0 -23 10t-10 23q0 14 10 24l98 98q13 13 32 13t32 -13t13 -32v-326q0 -17 -12 -29t-29 -12q-16 0 -28 12z" />
    <glyph glyph-name="ordmasculine" unicode="&#xba;" horiz-adv-x="405" 
d="M54.5 566q20.5 38 59 60t88.5 22q51 0 89.5 -22t59 -60t20.5 -83t-20.5 -83t-59 -60t-89.5 -22q-50 0 -88.5 22t-59 60t-20.5 83t20.5 83zM267 555.5q-24 27.5 -65 27.5t-64.5 -27.5t-23.5 -72.5q0 -46 23.5 -74t64.5 -28t65 28t24 74q0 45 -24 72.5z" />
    <glyph glyph-name="guillemotright" unicode="&#xbb;" horiz-adv-x="489" 
d="M81 68q-11 11 -11 26q0 16 9 25l111 124l-110 122q-9 9 -9 24t10.5 26t25.5 11q18 0 28 -12l115 -127q19 -20 19 -44q0 -22 -19 -44l-115 -129q-13 -13 -28 -13t-26 11zM251 68q-11 11 -11 26q0 16 9 25l111 124l-110 122q-9 9 -9 24t10.5 26t25.5 11q18 0 28 -12
l115 -127q19 -20 19 -44q0 -22 -19 -44l-115 -129q-13 -13 -28 -13t-26 11z" />
    <glyph glyph-name="onequarter" unicode="&#xbc;" horiz-adv-x="742" 
d="M125 273q-12 12 -12 29v261l-47 -48q-9 -10 -24 -10q-13 0 -23 10t-10 23q0 14 10 24l98 98q13 13 32 13t32 -13t13 -32v-326q0 -17 -12 -29t-29 -12q-16 0 -28 12zM155 -6q-12 0 -20 8.5t-8 19.5q0 9 4 16l397 622q8 13 24 13q12 0 20.5 -8.5t8.5 -20.5q0 -8 -4 -15
l-398 -622q-9 -13 -24 -13zM729.5 146.5q9.5 -9.5 9.5 -22.5t-9.5 -22.5t-22.5 -9.5h-29v-58q0 -16 -11.5 -28t-28.5 -12q-16 0 -28 12t-12 28v58h-166q-15 0 -25.5 10.5t-10.5 25.5q0 10 6 20l147 226q9 15 25 23.5t34 8.5q29 0 49.5 -20.5t20.5 -49.5v-180h29
q13 0 22.5 -9.5zM482 156h116v175z" />
    <glyph glyph-name="onehalf" unicode="&#xbd;" horiz-adv-x="782" 
d="M125 273q-12 12 -12 29v261l-47 -48q-9 -10 -24 -10q-13 0 -23 10t-10 23q0 14 10 24l98 98q13 13 32 13t32 -13t13 -32v-326q0 -17 -12 -29t-29 -12q-16 0 -28 12zM155 -6q-12 0 -20 8.5t-8 19.5q0 9 4 16l397 622q8 13 24 13q12 0 20.5 -8.5t8.5 -20.5q0 -8 -4 -15
l-398 -622q-9 -13 -24 -13zM452.5 11.5q-11.5 11.5 -11.5 27.5q0 19 17 31q82 56 126.5 92t64 63t19.5 53q0 31 -21.5 47t-53.5 16q-50 0 -92 -32q-10 -8 -20 -8q-14 0 -23.5 10t-9.5 24q0 16 12 26q56 45 135 45q66 0 109.5 -32t43.5 -90q0 -51 -44.5 -101.5t-139.5 -117.5
h160q13 0 23 -9.5t10 -22.5t-9.5 -23t-23.5 -10h-244q-16 0 -27.5 11.5z" />
    <glyph glyph-name="threequarters" unicode="&#xbe;" horiz-adv-x="836" 
d="M35 304q-12 10 -12 27q0 14 10 23.5t24 9.5q13 0 20 -6q43 -33 95 -33q39 0 60.5 15.5t21.5 41.5q0 57 -95 57h-17q-13 0 -22.5 9.5t-9.5 22.5t9.5 22t22.5 9h16q89 0 89 53q0 25 -22.5 39t-57.5 14q-49 0 -89 -30q-8 -6 -19 -6q-13 0 -22 9t-9 22q0 15 12 25
q57 45 135 45q70 0 111 -29.5t41 -78.5q0 -37 -26.5 -61.5t-62.5 -30.5q35 -3 65.5 -28t30.5 -68q0 -52 -43.5 -84.5t-115.5 -32.5q-85 0 -140 44zM249 -6q-12 0 -20 8.5t-8 19.5q0 9 4 16l397 622q8 13 24 13q12 0 20.5 -8.5t8.5 -20.5q0 -8 -4 -15l-398 -622
q-9 -13 -24 -13zM823.5 146.5q9.5 -9.5 9.5 -22.5t-9.5 -22.5t-22.5 -9.5h-29v-58q0 -16 -11.5 -28t-28.5 -12q-16 0 -28 12t-12 28v58h-166q-15 0 -25.5 10.5t-10.5 25.5q0 10 6 20l147 226q9 15 25 23.5t34 8.5q29 0 49.5 -20.5t20.5 -49.5v-180h29q13 0 22.5 -9.5z
M576 156h116v175z" />
    <glyph glyph-name="questiondown" unicode="&#xbf;" horiz-adv-x="396" 
d="M282.5 374q-20.5 -21 -49.5 -21q-28 0 -49 21t-21 49q0 29 21 49.5t49 20.5q29 0 49.5 -20.5t20.5 -49.5q0 -28 -20.5 -49zM282 129q-23 -28 -68 -60q-36 -25 -53 -43.5t-17 -44.5q0 -31 24.5 -51.5t70.5 -20.5q63 0 109 40q13 11 32 11q21 0 36 -14.5t15 -35.5
q0 -24 -18 -39q-78 -66 -186 -66q-62 0 -108 20.5t-70.5 56t-24.5 80.5q0 39 15 67.5t36 48t55 42.5q39 28 56 46.5t17 44.5q0 3 -2 13l-1 10q0 20 14 35t35 15q13 0 24.5 -7t17.5 -19q14 -28 14 -57q0 -44 -23 -72z" />
    <glyph glyph-name="Agrave" unicode="&#xc0;" horiz-adv-x="673" 
d="M646 54q0 -25 -17.5 -42.5t-42.5 -17.5q-19 0 -34 10.5t-21 27.5l-35 96h-320l-35 -96q-6 -17 -21 -27.5t-34 -10.5q-25 0 -42.5 17.5t-17.5 42.5q0 6 5 21l209 532q12 29 38 47.5t58 18.5t58 -18.5t38 -47.5l209 -532q5 -15 5 -21zM213 231h246l-123 337zM212 816
q-11 9 -11 24q0 14 9.5 23.5t22.5 9.5q14 0 24 -10l97 -100q8 -10 8 -19q0 -11 -8 -19t-19 -8t-18 7z" />
    <glyph glyph-name="Aacute" unicode="&#xc1;" horiz-adv-x="673" 
d="M646 54q0 -25 -17.5 -42.5t-42.5 -17.5q-19 0 -34 10.5t-21 27.5l-35 96h-320l-35 -96q-6 -17 -21 -27.5t-34 -10.5q-25 0 -42.5 17.5t-17.5 42.5q0 6 5 21l209 532q12 29 38 47.5t58 18.5t58 -18.5t38 -47.5l209 -532q5 -15 5 -21zM213 231h246l-123 337zM343 717
q-11 0 -19 8t-8 19q0 9 8 19l97 100q10 10 24 10q13 0 22.5 -9.5t9.5 -23.5q0 -15 -11 -24l-105 -92q-7 -7 -18 -7z" />
    <glyph glyph-name="Acircumflex" unicode="&#xc2;" horiz-adv-x="673" 
d="M646 54q0 -25 -17.5 -42.5t-42.5 -17.5q-19 0 -34 10.5t-21 27.5l-35 96h-320l-35 -96q-6 -17 -21 -27.5t-34 -10.5q-25 0 -42.5 17.5t-17.5 42.5q0 6 5 21l209 532q12 29 38 47.5t58 18.5t58 -18.5t38 -47.5l209 -532q5 -15 5 -21zM213 231h246l-123 337zM337 819
l-72 -92q-7 -10 -21 -10q-12 0 -20.5 8t-8.5 21q0 9 4 14l57 88q7 11 20 18t27 7h28q14 0 27 -7t20 -18l57 -88q4 -5 4 -14q0 -13 -8.5 -21t-20.5 -8q-14 0 -21 10z" />
    <glyph glyph-name="Atilde" unicode="&#xc3;" horiz-adv-x="673" 
d="M646 54q0 -25 -17.5 -42.5t-42.5 -17.5q-19 0 -34 10.5t-21 27.5l-35 96h-320l-35 -96q-6 -17 -21 -27.5t-34 -10.5q-25 0 -42.5 17.5t-17.5 42.5q0 6 5 21l209 532q12 29 38 47.5t58 18.5t58 -18.5t38 -47.5l209 -532q5 -15 5 -21zM213 231h246l-123 337zM351.5 733
q-16.5 12 -33.5 34q-12 16 -21.5 24t-21.5 8q-15 0 -26 -13t-15 -40q-2 -11 -9.5 -18t-18.5 -7q-13 0 -21.5 10t-6.5 22q6 52 32 80t69 28q26 0 42 -12t33 -34q14 -17 23 -24.5t21 -7.5q15 0 25.5 13t14.5 40q1 11 9 18t19 7q13 0 21.5 -9.5t7.5 -22.5q-6 -52 -32 -80
t-69 -28q-26 0 -42.5 12z" />
    <glyph glyph-name="Adieresis" unicode="&#xc4;" horiz-adv-x="673" 
d="M646 54q0 -25 -17.5 -42.5t-42.5 -17.5q-19 0 -34 10.5t-21 27.5l-35 96h-320l-35 -96q-6 -17 -21 -27.5t-34 -10.5q-25 0 -42.5 17.5t-17.5 42.5q0 6 5 21l209 532q12 29 38 47.5t58 18.5t58 -18.5t38 -47.5l209 -532q5 -15 5 -21zM213 231h246l-123 337zM190 748
q-17 17 -17 42q0 24 17 41t42 17q24 0 41 -17t17 -41q0 -25 -17 -42t-41 -17q-25 0 -42 17zM399.5 748q-17.5 17 -17.5 42q0 24 17.5 41t41.5 17t41.5 -17t17.5 -41q0 -25 -17.5 -42t-41.5 -17t-41.5 17z" />
    <glyph glyph-name="Aring" unicode="&#xc5;" horiz-adv-x="673" 
d="M646 54q0 -25 -17.5 -42.5t-42.5 -17.5q-19 0 -34 10.5t-21 27.5l-35 96h-320l-35 -96q-6 -17 -21 -27.5t-34 -10.5q-25 0 -42.5 17.5t-17.5 42.5q0 6 5 21l209 532q12 29 38 47.5t58 18.5t58 -18.5t38 -47.5l209 -532q5 -15 5 -21zM213 231h246l-123 337zM265 877.5
q30 30.5 72 30.5t71.5 -30.5t29.5 -72.5t-29.5 -72t-71.5 -30t-72 30t-30 72t30 72.5zM373.5 842q-14.5 15 -36.5 15q-21 0 -36.5 -15t-15.5 -37q0 -21 15.5 -36.5t36.5 -15.5t36 15.5t15 36.5q0 22 -14.5 37z" />
    <glyph glyph-name="AE" unicode="&#xc6;" horiz-adv-x="959" 
d="M902.5 88q15.5 -15 15.5 -36q0 -22 -15.5 -37t-36.5 -15h-349q-30 0 -46 16t-16 46v66h-255l-62 -108q-7 -11 -19.5 -18.5t-26.5 -7.5q-23 0 -39 16t-16 39q0 14 8 28l337 548q14 22 32 32t43 10h409q21 0 36.5 -15t15.5 -37q0 -21 -15.5 -36t-36.5 -15h-294v-173h287
q21 0 36.5 -15t15.5 -36q0 -22 -15.5 -37t-36.5 -15h-287v-185h294q21 0 36.5 -15zM260 231h195v338z" />
    <glyph glyph-name="Ccedilla" unicode="&#xc7;" horiz-adv-x="672" 
d="M618 163q16 -16 16 -39t-14 -37q-86 -93 -213 -98l-17 -42q16 11 36 11q29 0 48 -19.5t19 -49.5q0 -37 -31 -60t-77 -23q-52 0 -92 22q-14 7 -14 22q0 11 7.5 18.5t17.5 7.5q6 0 13 -4q32 -18 65 -18q23 0 39.5 9.5t16.5 26.5q0 30 -33 30q-16 0 -27 -9q-7 -5 -16 -5
q-12 0 -20 8t-8 20q0 4 2 10l17 45q-88 7 -159 52.5t-112 121.5t-41 170q0 100 46 179t124.5 122.5t174.5 43.5q144 0 234 -99q14 -14 14 -37q0 -22 -16 -38.5t-39 -16.5q-26 0 -42 19q-28 32 -67 50t-84 18q-63 0 -114.5 -31t-81 -86t-29.5 -124t29.5 -124t81 -86
t114.5 -31q46 0 85 18t67 50q17 19 41 19q23 0 39 -16z" />
    <glyph glyph-name="Egrave" unicode="&#xc8;" horiz-adv-x="577" 
d="M87 16q-16 16 -16 46v543q0 30 16 46t46 16h349q21 0 36.5 -15t15.5 -37q0 -21 -15.5 -36t-36.5 -15h-294v-173h287q21 0 36.5 -15t15.5 -36q0 -22 -15.5 -37t-36.5 -15h-287v-185h294q21 0 36.5 -15t15.5 -36q0 -22 -15.5 -37t-36.5 -15h-349q-30 0 -46 16zM182 816
q-11 9 -11 24q0 14 9.5 23.5t22.5 9.5q14 0 24 -10l97 -100q8 -10 8 -19q0 -11 -8 -19t-19 -8t-18 7z" />
    <glyph glyph-name="Eacute" unicode="&#xc9;" horiz-adv-x="577" 
d="M87 16q-16 16 -16 46v543q0 30 16 46t46 16h349q21 0 36.5 -15t15.5 -37q0 -21 -15.5 -36t-36.5 -15h-294v-173h287q21 0 36.5 -15t15.5 -36q0 -22 -15.5 -37t-36.5 -15h-287v-185h294q21 0 36.5 -15t15.5 -36q0 -22 -15.5 -37t-36.5 -15h-349q-30 0 -46 16zM313 717
q-11 0 -19 8t-8 19q0 9 8 19l97 100q10 10 24 10q13 0 22.5 -9.5t9.5 -23.5q0 -15 -11 -24l-105 -92q-7 -7 -18 -7z" />
    <glyph glyph-name="Ecircumflex" unicode="&#xca;" horiz-adv-x="577" 
d="M87 16q-16 16 -16 46v543q0 30 16 46t46 16h349q21 0 36.5 -15t15.5 -37q0 -21 -15.5 -36t-36.5 -15h-294v-173h287q21 0 36.5 -15t15.5 -36q0 -22 -15.5 -37t-36.5 -15h-287v-185h294q21 0 36.5 -15t15.5 -36q0 -22 -15.5 -37t-36.5 -15h-349q-30 0 -46 16zM307 819
l-72 -92q-7 -10 -21 -10q-12 0 -20.5 8t-8.5 21q0 9 4 14l57 88q7 11 20 18t27 7h28q14 0 27 -7t20 -18l57 -88q4 -5 4 -14q0 -13 -8.5 -21t-20.5 -8q-14 0 -21 10z" />
    <glyph glyph-name="Edieresis" unicode="&#xcb;" horiz-adv-x="577" 
d="M87 16q-16 16 -16 46v543q0 30 16 46t46 16h349q21 0 36.5 -15t15.5 -37q0 -21 -15.5 -36t-36.5 -15h-294v-173h287q21 0 36.5 -15t15.5 -36q0 -22 -15.5 -37t-36.5 -15h-287v-185h294q21 0 36.5 -15t15.5 -36q0 -22 -15.5 -37t-36.5 -15h-349q-30 0 -46 16zM160 748
q-17 17 -17 42q0 24 17 41t42 17q24 0 41 -17t17 -41q0 -25 -17 -42t-41 -17q-25 0 -42 17zM369.5 748q-17.5 17 -17.5 42q0 24 17.5 41t41.5 17t41.5 -17t17.5 -41q0 -25 -17.5 -42t-41.5 -17t-41.5 17z" />
    <glyph glyph-name="Igrave" unicode="&#xcc;" horiz-adv-x="259" 
d="M88 11.5q-17 17.5 -17 41.5v561q0 24 17 41.5t42 17.5q24 0 41 -17.5t17 -41.5v-561q0 -24 -17 -41.5t-41 -17.5q-25 0 -42 17.5zM6 816q-11 9 -11 24q0 14 9.5 23.5t22.5 9.5q14 0 24 -10l97 -100q8 -10 8 -19q0 -11 -8 -19t-19 -8t-18 7z" />
    <glyph glyph-name="Iacute" unicode="&#xcd;" horiz-adv-x="259" 
d="M88 11.5q-17 17.5 -17 41.5v561q0 24 17 41.5t42 17.5q24 0 41 -17.5t17 -41.5v-561q0 -24 -17 -41.5t-41 -17.5q-25 0 -42 17.5zM137 717q-11 0 -19 8t-8 19q0 9 8 19l97 100q10 10 24 10q13 0 22.5 -9.5t9.5 -23.5q0 -15 -11 -24l-105 -92q-7 -7 -18 -7z" />
    <glyph glyph-name="Icircumflex" unicode="&#xce;" horiz-adv-x="259" 
d="M88 11.5q-17 17.5 -17 41.5v561q0 24 17 41.5t42 17.5q24 0 41 -17.5t17 -41.5v-561q0 -24 -17 -41.5t-41 -17.5q-25 0 -42 17.5zM131 819l-72 -92q-7 -10 -21 -10q-12 0 -20.5 8t-8.5 21q0 9 4 14l57 88q7 11 20 18t27 7h28q14 0 27 -7t20 -18l57 -88q4 -5 4 -14
q0 -13 -8.5 -21t-20.5 -8q-14 0 -21 10z" />
    <glyph glyph-name="Idieresis" unicode="&#xcf;" horiz-adv-x="259" 
d="M88 11.5q-17 17.5 -17 41.5v561q0 24 17 41.5t42 17.5q24 0 41 -17.5t17 -41.5v-561q0 -24 -17 -41.5t-41 -17.5q-25 0 -42 17.5zM-16 748q-17 17 -17 42q0 24 17 41t42 17q24 0 41 -17t17 -41q0 -25 -17 -42t-41 -17q-25 0 -42 17zM193.5 748q-17.5 17 -17.5 42
q0 24 17.5 41t41.5 17t41.5 -17t17.5 -41q0 -25 -17.5 -42t-41.5 -17t-41.5 17z" />
    <glyph glyph-name="Eth" unicode="&#xd0;" horiz-adv-x="736" 
d="M527 624.5q79 -42.5 123 -118.5t44 -173t-44 -172.5t-123 -118t-182 -42.5h-186q-30 0 -46 16t-16 46v223h-51q-17 0 -30 12.5t-13 30.5t13 30.5t30 12.5h51v234q0 30 16 46t46 16h186q103 0 182 -42.5zM467 133.5q52 30.5 79.5 83t27.5 116.5q0 65 -26.5 117.5t-78.5 83
t-124 30.5h-131v-193h121q17 0 30 -12.5t13 -30.5t-13 -30.5t-30 -12.5h-121v-182h131q70 0 122 30.5z" />
    <glyph glyph-name="Ntilde" unicode="&#xd1;" horiz-adv-x="720" 
d="M544 2q-15 8 -25 22l-331 462v-433q0 -24 -17 -41.5t-41 -17.5q-25 0 -42 17.5t-17 41.5v543q0 32 22.5 54.5t54.5 22.5q19 0 35 -8.5t27 -23.5l322 -447v420q0 24 17 41.5t41 17.5q25 0 42 -17.5t17 -41.5v-548q0 -29 -21 -50.5t-51 -21.5q-18 0 -33 8zM375.5 733
q-16.5 12 -33.5 34q-12 16 -21.5 24t-21.5 8q-15 0 -26 -13t-15 -40q-2 -11 -9.5 -18t-18.5 -7q-13 0 -21.5 10t-6.5 22q6 52 32 80t69 28q26 0 42 -12t33 -34q14 -17 23 -24.5t21 -7.5q15 0 25.5 13t14.5 40q1 11 9 18t19 7q13 0 21.5 -9.5t7.5 -22.5q-6 -52 -32 -80
t-69 -28q-26 0 -42.5 12z" />
    <glyph glyph-name="Ograve" unicode="&#xd2;" horiz-adv-x="765" 
d="M84.5 510q43.5 79 121 123.5t176.5 44.5t176.5 -44.5t121 -123.5t43.5 -177t-43.5 -177t-121 -123.5t-176.5 -44.5t-176.5 44.5t-121 123.5t-43.5 177t43.5 177zM575.5 457q-27.5 55 -77.5 86t-116 31t-116 -31t-77.5 -86t-27.5 -124q0 -68 27.5 -123t77.5 -86.5
t116 -31.5t116 31.5t77.5 86.5t27.5 123q0 69 -27.5 124zM257 816q-11 9 -11 24q0 14 9.5 23.5t22.5 9.5q14 0 24 -10l97 -100q8 -10 8 -19q0 -11 -8 -19t-19 -8t-18 7z" />
    <glyph glyph-name="Oacute" unicode="&#xd3;" horiz-adv-x="765" 
d="M84.5 510q43.5 79 121 123.5t176.5 44.5t176.5 -44.5t121 -123.5t43.5 -177t-43.5 -177t-121 -123.5t-176.5 -44.5t-176.5 44.5t-121 123.5t-43.5 177t43.5 177zM575.5 457q-27.5 55 -77.5 86t-116 31t-116 -31t-77.5 -86t-27.5 -124q0 -68 27.5 -123t77.5 -86.5
t116 -31.5t116 31.5t77.5 86.5t27.5 123q0 69 -27.5 124zM388 717q-11 0 -19 8t-8 19q0 9 8 19l97 100q10 10 24 10q13 0 22.5 -9.5t9.5 -23.5q0 -15 -11 -24l-105 -92q-7 -7 -18 -7z" />
    <glyph glyph-name="Ocircumflex" unicode="&#xd4;" horiz-adv-x="765" 
d="M84.5 510q43.5 79 121 123.5t176.5 44.5t176.5 -44.5t121 -123.5t43.5 -177t-43.5 -177t-121 -123.5t-176.5 -44.5t-176.5 44.5t-121 123.5t-43.5 177t43.5 177zM575.5 457q-27.5 55 -77.5 86t-116 31t-116 -31t-77.5 -86t-27.5 -124q0 -68 27.5 -123t77.5 -86.5
t116 -31.5t116 31.5t77.5 86.5t27.5 123q0 69 -27.5 124zM382 819l-72 -92q-7 -10 -21 -10q-12 0 -20.5 8t-8.5 21q0 9 4 14l57 88q7 11 20 18t27 7h28q14 0 27 -7t20 -18l57 -88q4 -5 4 -14q0 -13 -8.5 -21t-20.5 -8q-14 0 -21 10z" />
    <glyph glyph-name="Otilde" unicode="&#xd5;" horiz-adv-x="765" 
d="M84.5 510q43.5 79 121 123.5t176.5 44.5t176.5 -44.5t121 -123.5t43.5 -177t-43.5 -177t-121 -123.5t-176.5 -44.5t-176.5 44.5t-121 123.5t-43.5 177t43.5 177zM575.5 457q-27.5 55 -77.5 86t-116 31t-116 -31t-77.5 -86t-27.5 -124q0 -68 27.5 -123t77.5 -86.5
t116 -31.5t116 31.5t77.5 86.5t27.5 123q0 69 -27.5 124zM396.5 733q-16.5 12 -33.5 34q-12 16 -21.5 24t-21.5 8q-15 0 -26 -13t-15 -40q-2 -11 -9.5 -18t-18.5 -7q-13 0 -21.5 10t-6.5 22q6 52 32 80t69 28q26 0 42 -12t33 -34q14 -17 23 -24.5t21 -7.5q15 0 25.5 13
t14.5 40q1 11 9 18t19 7q13 0 21.5 -9.5t7.5 -22.5q-6 -52 -32 -80t-69 -28q-26 0 -42.5 12z" />
    <glyph glyph-name="Odieresis" unicode="&#xd6;" horiz-adv-x="765" 
d="M84.5 510q43.5 79 121 123.5t176.5 44.5t176.5 -44.5t121 -123.5t43.5 -177t-43.5 -177t-121 -123.5t-176.5 -44.5t-176.5 44.5t-121 123.5t-43.5 177t43.5 177zM575.5 457q-27.5 55 -77.5 86t-116 31t-116 -31t-77.5 -86t-27.5 -124q0 -68 27.5 -123t77.5 -86.5
t116 -31.5t116 31.5t77.5 86.5t27.5 123q0 69 -27.5 124zM235 748q-17 17 -17 42q0 24 17 41t42 17q24 0 41 -17t17 -41q0 -25 -17 -42t-41 -17q-25 0 -42 17zM444.5 748q-17.5 17 -17.5 42q0 24 17.5 41t41.5 17t41.5 -17t17.5 -41q0 -25 -17.5 -42t-41.5 -17t-41.5 17z
" />
    <glyph glyph-name="multiply" unicode="&#xd7;" horiz-adv-x="502" 
d="M126 161q-9 -9 -23 -9t-24 9.5t-10 23.5t10 24l124 125l-124 124q-10 10 -10 24t10 24t24 10t24 -10l124 -125l124 125q10 10 24 10t24 -10t10 -24t-10 -24l-124 -124l124 -125q10 -10 10 -24t-10 -23.5t-24 -9.5t-23 9l-125 125z" />
    <glyph glyph-name="Oslash" unicode="&#xd8;" horiz-adv-x="765" 
d="M693.5 482q29.5 -68 29.5 -149q0 -98 -43.5 -177t-121 -123.5t-176.5 -44.5q-100 0 -180 47l-18 -26q-5 -7 -12.5 -11t-15.5 -4q-15 0 -25 10.5t-10 24.5t6 21l19 26q-50 47 -77.5 113t-27.5 144q0 98 43.5 177t121 123.5t176.5 44.5q93 0 170 -41l16 21q5 7 12.5 11
t15.5 4q15 0 25 -10.5t10 -24.5q0 -13 -6 -21l-15 -20q54 -47 83.5 -115zM174.5 243.5q13.5 -41.5 39.5 -73.5l274 378q-46 26 -106 26q-66 0 -116 -31t-77.5 -86t-27.5 -124q0 -48 13.5 -89.5zM498 123.5q50 31.5 77.5 86.5t27.5 123q0 51 -15.5 95t-44.5 77l-276 -382
q50 -31 115 -31q66 0 116 31.5z" />
    <glyph glyph-name="Ugrave" unicode="&#xd9;" horiz-adv-x="719" 
d="M71 614q0 24 17 41.5t42 17.5t42 -17.5t17 -41.5v-347q0 -81 44.5 -128t126.5 -47t126 47t44 128v347q0 24 17 41.5t42 17.5t42 -17.5t17 -41.5v-350q0 -128 -73.5 -202t-214.5 -74q-142 0 -215.5 74t-73.5 201v351zM236 816q-11 9 -11 24q0 14 9.5 23.5t22.5 9.5
q14 0 24 -10l97 -100q8 -10 8 -19q0 -11 -8 -19t-19 -8t-18 7z" />
    <glyph glyph-name="Uacute" unicode="&#xda;" horiz-adv-x="719" 
d="M71 614q0 24 17 41.5t42 17.5t42 -17.5t17 -41.5v-347q0 -81 44.5 -128t126.5 -47t126 47t44 128v347q0 24 17 41.5t42 17.5t42 -17.5t17 -41.5v-350q0 -128 -73.5 -202t-214.5 -74q-142 0 -215.5 74t-73.5 201v351zM367 717q-11 0 -19 8t-8 19q0 9 8 19l97 100
q10 10 24 10q13 0 22.5 -9.5t9.5 -23.5q0 -15 -11 -24l-105 -92q-7 -7 -18 -7z" />
    <glyph glyph-name="Ucircumflex" unicode="&#xdb;" horiz-adv-x="719" 
d="M71 614q0 24 17 41.5t42 17.5t42 -17.5t17 -41.5v-347q0 -81 44.5 -128t126.5 -47t126 47t44 128v347q0 24 17 41.5t42 17.5t42 -17.5t17 -41.5v-350q0 -128 -73.5 -202t-214.5 -74q-142 0 -215.5 74t-73.5 201v351zM361 819l-72 -92q-7 -10 -21 -10q-12 0 -20.5 8
t-8.5 21q0 9 4 14l57 88q7 11 20 18t27 7h28q14 0 27 -7t20 -18l57 -88q4 -5 4 -14q0 -13 -8.5 -21t-20.5 -8q-14 0 -21 10z" />
    <glyph glyph-name="Udieresis" unicode="&#xdc;" horiz-adv-x="719" 
d="M71 614q0 24 17 41.5t42 17.5t42 -17.5t17 -41.5v-347q0 -81 44.5 -128t126.5 -47t126 47t44 128v347q0 24 17 41.5t42 17.5t42 -17.5t17 -41.5v-350q0 -128 -73.5 -202t-214.5 -74q-142 0 -215.5 74t-73.5 201v351zM214 748q-17 17 -17 42q0 24 17 41t42 17q24 0 41 -17
t17 -41q0 -25 -17 -42t-41 -17q-25 0 -42 17zM423.5 748q-17.5 17 -17.5 42q0 24 17.5 41t41.5 17t41.5 -17t17.5 -41q0 -25 -17.5 -42t-41.5 -17t-41.5 17z" />
    <glyph glyph-name="Yacute" unicode="&#xdd;" horiz-adv-x="636" 
d="M582 587l-205 -310v-224q0 -24 -17 -41.5t-41 -17.5q-25 0 -42 17.5t-17 41.5v224l-206 309q-9 12 -9 31q0 23 16.5 39.5t39.5 16.5q14 0 26.5 -7t20.5 -19l171 -266l169 266q8 12 20.5 19t26.5 7q23 0 39.5 -16.5t16.5 -39.5q0 -18 -9 -30zM326 717q-11 0 -19 8t-8 19
q0 9 8 19l97 100q10 10 24 10q13 0 22.5 -9.5t9.5 -23.5q0 -15 -11 -24l-105 -92q-7 -7 -18 -7z" />
    <glyph glyph-name="Thorn" unicode="&#xde;" horiz-adv-x="608" 
d="M88 11.5q-17 17.5 -17 41.5v561q0 24 17 41.5t41 17.5q25 0 42 -17.5t17 -41.5v-60h176q68 0 117 -28t75 -76t26 -106q0 -57 -26 -104.5t-75.5 -75t-116.5 -27.5h-176v-84q0 -24 -17 -41.5t-41 -17.5q-25 0 -42 17.5zM430 421.5q-32 29.5 -82 29.5h-160v-211h160
q50 0 82 29t32 76t-32 76.5z" />
    <glyph glyph-name="germandbls" unicode="&#xdf;" horiz-adv-x="623" 
d="M317 2.5q-39 14.5 -74 41.5q-16 14 -16 33q0 17 12.5 29.5t29.5 12.5q14 0 25 -8q54 -39 117 -39q45 0 69.5 19t24.5 46q0 26 -25 39.5t-78 26.5t-86.5 26.5t-58 42.5t-24.5 77q0 41 22 67t61 53q26 18 38 30t12 27q0 27 -26.5 42.5t-60.5 15.5q-46 0 -76 -27t-30 -72
v-438q0 -22 -15.5 -37.5t-36.5 -15.5q-22 0 -37.5 15.5t-15.5 37.5v438q0 53 26 97t74 69.5t113 25.5q51 0 95 -17t70.5 -48t26.5 -72t-21 -66t-61 -52q-29 -20 -43 -35t-14 -35q0 -23 23 -33.5t73 -22.5q54 -12 89.5 -26t61 -45.5t25.5 -84.5q0 -43 -23 -77.5t-67.5 -54.5
t-104.5 -20q-55 0 -94 14.5z" />
    <glyph glyph-name="agrave" unicode="&#xe0;" horiz-adv-x="536" 
d="M412 453q56 -42 56 -133v-273q0 -22 -15.5 -37.5t-37.5 -15.5q-21 0 -36.5 15.5t-15.5 37.5v5q-27 -31 -67.5 -47.5t-88.5 -16.5q-41 0 -80 18.5t-63.5 54.5t-24.5 87q0 53 24.5 88t63 52t80.5 17q49 0 89.5 -16t66.5 -46v72q0 42 -31 66t-82 24q-61 0 -113 -36
q-11 -7 -24 -7q-17 0 -29.5 12.5t-12.5 29.5q0 10 5 19.5t13 14.5q77 57 178 57q89 0 145 -42zM314.5 73q30.5 13 48.5 37v73q-18 24 -48.5 37t-66.5 13q-45 0 -74 -24t-29 -63t29 -62.5t74 -23.5q36 0 66.5 13zM144 669q-11 9 -11 24q0 14 9.5 23.5t22.5 9.5q14 0 24 -10
l97 -100q8 -10 8 -19q0 -11 -8 -19t-19 -8t-18 7z" />
    <glyph glyph-name="aacute" unicode="&#xe1;" horiz-adv-x="536" 
d="M412 453q56 -42 56 -133v-273q0 -22 -15.5 -37.5t-37.5 -15.5q-21 0 -36.5 15.5t-15.5 37.5v5q-27 -31 -67.5 -47.5t-88.5 -16.5q-41 0 -80 18.5t-63.5 54.5t-24.5 87q0 53 24.5 88t63 52t80.5 17q49 0 89.5 -16t66.5 -46v72q0 42 -31 66t-82 24q-61 0 -113 -36
q-11 -7 -24 -7q-17 0 -29.5 12.5t-12.5 29.5q0 10 5 19.5t13 14.5q77 57 178 57q89 0 145 -42zM314.5 73q30.5 13 48.5 37v73q-18 24 -48.5 37t-66.5 13q-45 0 -74 -24t-29 -63t29 -62.5t74 -23.5q36 0 66.5 13zM275 570q-11 0 -19 8t-8 19q0 9 8 19l97 100q10 10 24 10
q13 0 22.5 -9.5t9.5 -23.5q0 -15 -11 -24l-105 -92q-7 -7 -18 -7z" />
    <glyph glyph-name="acircumflex" unicode="&#xe2;" horiz-adv-x="536" 
d="M412 453q56 -42 56 -133v-273q0 -22 -15.5 -37.5t-37.5 -15.5q-21 0 -36.5 15.5t-15.5 37.5v5q-27 -31 -67.5 -47.5t-88.5 -16.5q-41 0 -80 18.5t-63.5 54.5t-24.5 87q0 53 24.5 88t63 52t80.5 17q49 0 89.5 -16t66.5 -46v72q0 42 -31 66t-82 24q-61 0 -113 -36
q-11 -7 -24 -7q-17 0 -29.5 12.5t-12.5 29.5q0 10 5 19.5t13 14.5q77 57 178 57q89 0 145 -42zM314.5 73q30.5 13 48.5 37v73q-18 24 -48.5 37t-66.5 13q-45 0 -74 -24t-29 -63t29 -62.5t74 -23.5q36 0 66.5 13zM269 672l-72 -92q-7 -10 -21 -10q-12 0 -20.5 8t-8.5 21
q0 9 4 14l57 88q7 11 20 18t27 7h28q14 0 27 -7t20 -18l57 -88q4 -5 4 -14q0 -13 -8.5 -21t-20.5 -8q-14 0 -21 10z" />
    <glyph glyph-name="atilde" unicode="&#xe3;" horiz-adv-x="536" 
d="M412 453q56 -42 56 -133v-273q0 -22 -15.5 -37.5t-37.5 -15.5q-21 0 -36.5 15.5t-15.5 37.5v5q-27 -31 -67.5 -47.5t-88.5 -16.5q-41 0 -80 18.5t-63.5 54.5t-24.5 87q0 53 24.5 88t63 52t80.5 17q49 0 89.5 -16t66.5 -46v72q0 42 -31 66t-82 24q-61 0 -113 -36
q-11 -7 -24 -7q-17 0 -29.5 12.5t-12.5 29.5q0 10 5 19.5t13 14.5q77 57 178 57q89 0 145 -42zM314.5 73q30.5 13 48.5 37v73q-18 24 -48.5 37t-66.5 13q-45 0 -74 -24t-29 -63t29 -62.5t74 -23.5q36 0 66.5 13zM283.5 586q-16.5 12 -33.5 34q-12 16 -21.5 24t-21.5 8
q-15 0 -26 -13t-15 -40q-2 -11 -9.5 -18t-18.5 -7q-13 0 -21.5 10t-6.5 22q6 52 32 80t69 28q26 0 42 -12t33 -34q14 -17 23 -24.5t21 -7.5q15 0 25.5 13t14.5 40q1 11 9 18t19 7q13 0 21.5 -9.5t7.5 -22.5q-6 -52 -32 -80t-69 -28q-26 0 -42.5 12z" />
    <glyph glyph-name="adieresis" unicode="&#xe4;" horiz-adv-x="536" 
d="M412 453q56 -42 56 -133v-273q0 -22 -15.5 -37.5t-37.5 -15.5q-21 0 -36.5 15.5t-15.5 37.5v5q-27 -31 -67.5 -47.5t-88.5 -16.5q-41 0 -80 18.5t-63.5 54.5t-24.5 87q0 53 24.5 88t63 52t80.5 17q49 0 89.5 -16t66.5 -46v72q0 42 -31 66t-82 24q-61 0 -113 -36
q-11 -7 -24 -7q-17 0 -29.5 12.5t-12.5 29.5q0 10 5 19.5t13 14.5q77 57 178 57q89 0 145 -42zM314.5 73q30.5 13 48.5 37v73q-18 24 -48.5 37t-66.5 13q-45 0 -74 -24t-29 -63t29 -62.5t74 -23.5q36 0 66.5 13zM122 601q-17 17 -17 42q0 24 17 41t42 17q24 0 41 -17t17 -41
q0 -25 -17 -42t-41 -17q-25 0 -42 17zM331.5 601q-17.5 17 -17.5 42q0 24 17.5 41t41.5 17t41.5 -17t17.5 -41q0 -25 -17.5 -42t-41.5 -17t-41.5 17z" />
    <glyph glyph-name="aring" unicode="&#xe5;" horiz-adv-x="536" 
d="M412 453q56 -42 56 -133v-273q0 -22 -15.5 -37.5t-37.5 -15.5q-21 0 -36.5 15.5t-15.5 37.5v5q-27 -31 -67.5 -47.5t-88.5 -16.5q-41 0 -80 18.5t-63.5 54.5t-24.5 87q0 53 24.5 88t63 52t80.5 17q49 0 89.5 -16t66.5 -46v72q0 42 -31 66t-82 24q-61 0 -113 -36
q-11 -7 -24 -7q-17 0 -29.5 12.5t-12.5 29.5q0 10 5 19.5t13 14.5q77 57 178 57q89 0 145 -42zM314.5 73q30.5 13 48.5 37v73q-18 24 -48.5 37t-66.5 13q-45 0 -74 -24t-29 -63t29 -62.5t74 -23.5q36 0 66.5 13zM197 730.5q30 30.5 72 30.5t71.5 -30.5t29.5 -72.5t-29.5 -72
t-71.5 -30t-72 30t-30 72t30 72.5zM305.5 695q-14.5 15 -36.5 15q-21 0 -36.5 -15t-15.5 -37q0 -21 15.5 -36.5t36.5 -15.5t36 15.5t15 36.5q0 22 -14.5 37z" />
    <glyph glyph-name="ae" unicode="&#xe6;" horiz-adv-x="878" 
d="M534.5 113q37.5 -37 98.5 -37q25 0 51 7.5t49 22.5q11 7 23 7q17 0 29.5 -12.5t12.5 -30.5q0 -21 -19 -35q-34 -23 -73.5 -35t-77.5 -12q-132 0 -190 98q-29 -44 -83.5 -71t-119.5 -27q-52 0 -97 18t-72 54t-27 87q0 75 51 116.5t126 41.5q52 0 96.5 -15.5t73.5 -44.5v71
q0 41 -34 65t-89 24q-69 0 -126 -37q-10 -7 -23 -7q-17 0 -29.5 12.5t-12.5 30.5q0 11 5 20.5t13 14.5q80 56 182 56q66 0 111 -24t63 -69q30 44 71.5 68.5t105.5 24.5q65 0 115 -32.5t77 -87t27 -119.5q0 -23 -16 -36t-46 -13h-289q6 -57 43.5 -94zM706.5 370
q-31.5 39 -91.5 39q-57 0 -89.5 -39t-35.5 -89h250q-2 50 -33.5 89zM330.5 219.5q-34.5 13.5 -72.5 13.5q-50 0 -81.5 -20.5t-31.5 -58.5t31 -58t82 -20q34 0 63.5 15t47 38t17.5 46v7q-21 24 -55.5 37.5z" />
    <glyph glyph-name="ccedilla" unicode="&#xe7;" horiz-adv-x="497" 
d="M444 109.5q14 -13.5 14 -33.5q0 -10 -4.5 -20t-12.5 -16q-54 -46 -129 -51l-17 -42q16 11 36 11q29 0 48 -19.5t19 -49.5q0 -37 -31 -60t-77 -23q-52 0 -92 22q-14 7 -14 22q0 11 7.5 18.5t17.5 7.5q6 0 13 -4q32 -18 65 -18q23 0 39.5 9.5t16.5 26.5q0 30 -33 30
q-16 0 -27 -9q-8 -5 -16 -5q-12 0 -20 8t-8 20q0 4 2 10l17 46q-65 6 -115 40t-77.5 89t-27.5 123q0 72 32 130t89 90.5t129 32.5q93 0 153 -52q8 -6 12.5 -16t4.5 -20q0 -19 -13.5 -33t-33.5 -14q-18 0 -31 11q-37 31 -87 31q-66 0 -106 -44.5t-40 -115.5t40 -116t106 -45
q50 0 87 31q13 11 30 11q20 0 34 -13.5z" />
    <glyph glyph-name="egrave" unicode="&#xe8;" horiz-adv-x="557" 
d="M69.5 369.5q31.5 57.5 87.5 91.5t126 34t124.5 -32.5t84 -87.5t29.5 -119q0 -23 -16 -36t-46 -13h-311q6 -57 47 -95t107 -38q27 0 56 8.5t54 23.5q9 6 23 6q17 0 29.5 -12.5t12.5 -29.5q0 -21 -19 -35q-70 -47 -167 -47q-72 0 -129.5 31.5t-90.5 89.5t-33 133
q0 70 31.5 127.5zM186 370.5q-35 -38.5 -39 -89.5h272q-1 31 -16 60.5t-45 48.5t-75 19q-62 0 -97 -38.5zM159 669q-11 9 -11 24q0 14 9.5 23.5t22.5 9.5q14 0 24 -10l97 -100q8 -10 8 -19q0 -11 -8 -19t-19 -8t-18 7z" />
    <glyph glyph-name="eacute" unicode="&#xe9;" horiz-adv-x="557" 
d="M69.5 369.5q31.5 57.5 87.5 91.5t126 34t124.5 -32.5t84 -87.5t29.5 -119q0 -23 -16 -36t-46 -13h-311q6 -57 47 -95t107 -38q27 0 56 8.5t54 23.5q9 6 23 6q17 0 29.5 -12.5t12.5 -29.5q0 -21 -19 -35q-70 -47 -167 -47q-72 0 -129.5 31.5t-90.5 89.5t-33 133
q0 70 31.5 127.5zM186 370.5q-35 -38.5 -39 -89.5h272q-1 31 -16 60.5t-45 48.5t-75 19q-62 0 -97 -38.5zM290 570q-11 0 -19 8t-8 19q0 9 8 19l97 100q10 10 24 10q13 0 22.5 -9.5t9.5 -23.5q0 -15 -11 -24l-105 -92q-7 -7 -18 -7z" />
    <glyph glyph-name="ecircumflex" unicode="&#xea;" horiz-adv-x="557" 
d="M69.5 369.5q31.5 57.5 87.5 91.5t126 34t124.5 -32.5t84 -87.5t29.5 -119q0 -23 -16 -36t-46 -13h-311q6 -57 47 -95t107 -38q27 0 56 8.5t54 23.5q9 6 23 6q17 0 29.5 -12.5t12.5 -29.5q0 -21 -19 -35q-70 -47 -167 -47q-72 0 -129.5 31.5t-90.5 89.5t-33 133
q0 70 31.5 127.5zM186 370.5q-35 -38.5 -39 -89.5h272q-1 31 -16 60.5t-45 48.5t-75 19q-62 0 -97 -38.5zM284 672l-72 -92q-7 -10 -21 -10q-12 0 -20.5 8t-8.5 21q0 9 4 14l57 88q7 11 20 18t27 7h28q14 0 27 -7t20 -18l57 -88q4 -5 4 -14q0 -13 -8.5 -21t-20.5 -8
q-14 0 -21 10z" />
    <glyph glyph-name="edieresis" unicode="&#xeb;" horiz-adv-x="557" 
d="M69.5 369.5q31.5 57.5 87.5 91.5t126 34t124.5 -32.5t84 -87.5t29.5 -119q0 -23 -16 -36t-46 -13h-311q6 -57 47 -95t107 -38q27 0 56 8.5t54 23.5q9 6 23 6q17 0 29.5 -12.5t12.5 -29.5q0 -21 -19 -35q-70 -47 -167 -47q-72 0 -129.5 31.5t-90.5 89.5t-33 133
q0 70 31.5 127.5zM186 370.5q-35 -38.5 -39 -89.5h272q-1 31 -16 60.5t-45 48.5t-75 19q-62 0 -97 -38.5zM137 601q-17 17 -17 42q0 24 17 41t42 17q24 0 41 -17t17 -41q0 -25 -17 -42t-41 -17q-25 0 -42 17zM346.5 601q-17.5 17 -17.5 42q0 24 17.5 41t41.5 17t41.5 -17
t17.5 -41q0 -25 -17.5 -42t-41.5 -17t-41.5 17z" />
    <glyph glyph-name="igrave" unicode="&#xec;" horiz-adv-x="241" 
d="M83.5 9.5q-15.5 15.5 -15.5 37.5v389q0 22 15.5 37.5t37.5 15.5q21 0 36.5 -15.5t15.5 -37.5v-389q0 -22 -15.5 -37.5t-37.5 -15.5q-21 0 -36.5 15.5zM-4 669q-11 9 -11 24q0 14 9.5 23.5t22.5 9.5q14 0 24 -10l97 -100q8 -10 8 -19q0 -11 -8 -19t-19 -8t-18 7z" />
    <glyph glyph-name="iacute" unicode="&#xed;" horiz-adv-x="241" 
d="M83.5 9.5q-15.5 15.5 -15.5 37.5v389q0 22 15.5 37.5t37.5 15.5q21 0 36.5 -15.5t15.5 -37.5v-389q0 -22 -15.5 -37.5t-37.5 -15.5q-21 0 -36.5 15.5zM127 570q-11 0 -19 8t-8 19q0 9 8 19l97 100q10 10 24 10q13 0 22.5 -9.5t9.5 -23.5q0 -15 -11 -24l-105 -92
q-7 -7 -18 -7z" />
    <glyph glyph-name="icircumflex" unicode="&#xee;" horiz-adv-x="241" 
d="M83.5 9.5q-15.5 15.5 -15.5 37.5v389q0 22 15.5 37.5t37.5 15.5q21 0 36.5 -15.5t15.5 -37.5v-389q0 -22 -15.5 -37.5t-37.5 -15.5q-21 0 -36.5 15.5zM121 672l-72 -92q-7 -10 -21 -10q-12 0 -20.5 8t-8.5 21q0 9 4 14l57 88q7 11 20 18t27 7h28q14 0 27 -7t20 -18
l57 -88q4 -5 4 -14q0 -13 -8.5 -21t-20.5 -8q-14 0 -21 10z" />
    <glyph glyph-name="idieresis" unicode="&#xef;" horiz-adv-x="241" 
d="M83.5 9.5q-15.5 15.5 -15.5 37.5v389q0 22 15.5 37.5t37.5 15.5q21 0 36.5 -15.5t15.5 -37.5v-389q0 -22 -15.5 -37.5t-37.5 -15.5q-21 0 -36.5 15.5zM-26 601q-17 17 -17 42q0 24 17 41t42 17q24 0 41 -17t17 -41q0 -25 -17 -42t-41 -17q-25 0 -42 17zM183.5 601
q-17.5 17 -17.5 42q0 24 17.5 41t41.5 17t41.5 -17t17.5 -41q0 -25 -17.5 -42t-41.5 -17t-41.5 17z" />
    <glyph glyph-name="eth" unicode="&#xf0;" horiz-adv-x="573" 
d="M535 250q0 -76 -30 -135.5t-86.5 -93t-132.5 -33.5q-73 0 -129.5 31t-87.5 85.5t-31 123.5t28 123.5t77.5 85.5t111.5 31q99 0 159 -91q-40 80 -159 168l-123 -55q-3 -2 -12 -2q-11 0 -19.5 8t-8.5 20q0 18 17 26l92 40l-27 18q-11 7 -17.5 18.5t-6.5 24.5q0 21 15 36
t36 15q15 0 28 -8q41 -26 80 -56l85 37q3 2 11 2q11 0 19.5 -8t8.5 -19q0 -9 -5 -16t-12 -10l-58 -26q177 -154 177 -340zM388.5 123.5q37.5 42.5 37.5 104.5t-37.5 104.5t-102.5 42.5q-64 0 -101.5 -42.5t-37.5 -104.5t37.5 -104.5t101.5 -42.5q65 0 102.5 42.5z" />
    <glyph glyph-name="ntilde" unicode="&#xf1;" 
d="M459.5 455q39.5 -40 39.5 -115v-293q0 -22 -15.5 -37.5t-37.5 -15.5q-21 0 -36.5 15.5t-15.5 37.5v255q0 54 -25 77t-72 23q-38 0 -71 -19t-53 -46v-290q0 -22 -15.5 -37.5t-36.5 -15.5q-22 0 -37.5 15.5t-15.5 37.5v389q0 22 15.5 37.5t36.5 15.5q22 0 37.5 -15.5
t15.5 -37.5v-19q27 32 72 55t98 23q77 0 116.5 -40zM299.5 586q-16.5 12 -33.5 34q-12 16 -21.5 24t-21.5 8q-15 0 -26 -13t-15 -40q-2 -11 -9.5 -18t-18.5 -7q-13 0 -21.5 10t-6.5 22q6 52 32 80t69 28q26 0 42 -12t33 -34q14 -17 23 -24.5t21 -7.5q15 0 25.5 13t14.5 40
q1 11 9 18t19 7q13 0 21.5 -9.5t7.5 -22.5q-6 -52 -32 -80t-69 -28q-26 0 -42.5 12z" />
    <glyph glyph-name="ograve" unicode="&#xf2;" horiz-adv-x="573" 
d="M155.5 22q-56.5 34 -87 92t-30.5 128q0 69 30.5 127t87 92t130.5 34q75 0 131.5 -34t87 -91.5t30.5 -127.5t-30.5 -128t-87 -92t-131.5 -34q-74 0 -130.5 34zM388.5 127.5q37.5 46.5 37.5 114.5q0 67 -37.5 113.5t-102.5 46.5q-64 0 -101.5 -46.5t-37.5 -113.5
q0 -68 37.5 -114.5t101.5 -46.5q65 0 102.5 46.5zM162 669q-11 9 -11 24q0 14 9.5 23.5t22.5 9.5q14 0 24 -10l97 -100q8 -10 8 -19q0 -11 -8 -19t-19 -8t-18 7z" />
    <glyph glyph-name="oacute" unicode="&#xf3;" horiz-adv-x="573" 
d="M155.5 22q-56.5 34 -87 92t-30.5 128q0 69 30.5 127t87 92t130.5 34q75 0 131.5 -34t87 -91.5t30.5 -127.5t-30.5 -128t-87 -92t-131.5 -34q-74 0 -130.5 34zM388.5 127.5q37.5 46.5 37.5 114.5q0 67 -37.5 113.5t-102.5 46.5q-64 0 -101.5 -46.5t-37.5 -113.5
q0 -68 37.5 -114.5t101.5 -46.5q65 0 102.5 46.5zM293 570q-11 0 -19 8t-8 19q0 9 8 19l97 100q10 10 24 10q13 0 22.5 -9.5t9.5 -23.5q0 -15 -11 -24l-105 -92q-7 -7 -18 -7z" />
    <glyph glyph-name="ocircumflex" unicode="&#xf4;" horiz-adv-x="573" 
d="M155.5 22q-56.5 34 -87 92t-30.5 128q0 69 30.5 127t87 92t130.5 34q75 0 131.5 -34t87 -91.5t30.5 -127.5t-30.5 -128t-87 -92t-131.5 -34q-74 0 -130.5 34zM388.5 127.5q37.5 46.5 37.5 114.5q0 67 -37.5 113.5t-102.5 46.5q-64 0 -101.5 -46.5t-37.5 -113.5
q0 -68 37.5 -114.5t101.5 -46.5q65 0 102.5 46.5zM287 672l-72 -92q-7 -10 -21 -10q-12 0 -20.5 8t-8.5 21q0 9 4 14l57 88q7 11 20 18t27 7h28q14 0 27 -7t20 -18l57 -88q4 -5 4 -14q0 -13 -8.5 -21t-20.5 -8q-14 0 -21 10z" />
    <glyph glyph-name="otilde" unicode="&#xf5;" horiz-adv-x="573" 
d="M155.5 22q-56.5 34 -87 92t-30.5 128q0 69 30.5 127t87 92t130.5 34q75 0 131.5 -34t87 -91.5t30.5 -127.5t-30.5 -128t-87 -92t-131.5 -34q-74 0 -130.5 34zM388.5 127.5q37.5 46.5 37.5 114.5q0 67 -37.5 113.5t-102.5 46.5q-64 0 -101.5 -46.5t-37.5 -113.5
q0 -68 37.5 -114.5t101.5 -46.5q65 0 102.5 46.5zM301.5 586q-16.5 12 -33.5 34q-12 16 -21.5 24t-21.5 8q-15 0 -26 -13t-15 -40q-2 -11 -9.5 -18t-18.5 -7q-13 0 -21.5 10t-6.5 22q6 52 32 80t69 28q26 0 42 -12t33 -34q14 -17 23 -24.5t21 -7.5q15 0 25.5 13t14.5 40
q1 11 9 18t19 7q13 0 21.5 -9.5t7.5 -22.5q-6 -52 -32 -80t-69 -28q-26 0 -42.5 12z" />
    <glyph glyph-name="odieresis" unicode="&#xf6;" horiz-adv-x="573" 
d="M155.5 22q-56.5 34 -87 92t-30.5 128q0 69 30.5 127t87 92t130.5 34q75 0 131.5 -34t87 -91.5t30.5 -127.5t-30.5 -128t-87 -92t-131.5 -34q-74 0 -130.5 34zM388.5 127.5q37.5 46.5 37.5 114.5q0 67 -37.5 113.5t-102.5 46.5q-64 0 -101.5 -46.5t-37.5 -113.5
q0 -68 37.5 -114.5t101.5 -46.5q65 0 102.5 46.5zM140 601q-17 17 -17 42q0 24 17 41t42 17q24 0 41 -17t17 -41q0 -25 -17 -42t-41 -17q-25 0 -42 17zM349.5 601q-17.5 17 -17.5 42q0 24 17.5 41t41.5 17t41.5 -17t17.5 -41q0 -25 -17.5 -42t-41.5 -17t-41.5 17z" />
    <glyph glyph-name="divide" unicode="&#xf7;" horiz-adv-x="511" 
d="M217 481q-16 16 -16 39t16 38.5t38 15.5q23 0 39 -16t16 -38t-16 -38.5t-39 -16.5q-22 0 -38 16zM33 313q-10 10 -10 24t10 24t24 10h397q14 0 24 -10t10 -24t-10 -24t-24 -10h-397q-14 0 -24 10zM217 113q-16 16 -16 38q0 23 16 39t38 16q23 0 39 -16t16 -39
q0 -22 -16 -38t-39 -16q-22 0 -38 16z" />
    <glyph glyph-name="oslash" unicode="&#xf8;" horiz-adv-x="573" 
d="M517.5 341.5q17.5 -46.5 17.5 -99.5q0 -70 -30.5 -128t-87 -92t-131.5 -34q-82 0 -143 42l-22 -26q-8 -10 -20 -10q-11 0 -18.5 7.5t-7.5 18.5q0 9 6 17l22 27q-31 34 -48 80t-17 98q0 69 30.5 127t87 92t130.5 34q81 0 140 -39l19 23q8 10 20 10q11 0 19 -8t8 -19
t-6 -17l-19 -23q33 -34 50.5 -80.5zM171 147l192 232q-32 23 -77 23q-64 0 -101.5 -46.5t-37.5 -113.5q0 -54 24 -95zM388.5 127.5q37.5 46.5 37.5 114.5q0 58 -27 98l-193 -233q34 -26 80 -26q65 0 102.5 46.5z" />
    <glyph glyph-name="ugrave" unicode="&#xf9;" 
d="M483.5 473.5q15.5 -15.5 15.5 -37.5v-389q0 -22 -15.5 -37.5t-36.5 -15.5q-22 0 -37.5 15.5t-15.5 37.5v16q-30 -32 -74 -53.5t-97 -21.5q-77 0 -116 39t-39 114v295q0 22 15.5 37.5t37.5 15.5q21 0 36.5 -15.5t15.5 -37.5v-257q0 -53 25 -75.5t72 -22.5q38 0 71 18
t53 45v292q0 22 15.5 37.5t36.5 15.5q22 0 37.5 -15.5zM159 669q-11 9 -11 24q0 14 9.5 23.5t22.5 9.5q14 0 24 -10l97 -100q8 -10 8 -19q0 -11 -8 -19t-19 -8t-18 7z" />
    <glyph glyph-name="uacute" unicode="&#xfa;" 
d="M483.5 473.5q15.5 -15.5 15.5 -37.5v-389q0 -22 -15.5 -37.5t-36.5 -15.5q-22 0 -37.5 15.5t-15.5 37.5v16q-30 -32 -74 -53.5t-97 -21.5q-77 0 -116 39t-39 114v295q0 22 15.5 37.5t37.5 15.5q21 0 36.5 -15.5t15.5 -37.5v-257q0 -53 25 -75.5t72 -22.5q38 0 71 18
t53 45v292q0 22 15.5 37.5t36.5 15.5q22 0 37.5 -15.5zM290 570q-11 0 -19 8t-8 19q0 9 8 19l97 100q10 10 24 10q13 0 22.5 -9.5t9.5 -23.5q0 -15 -11 -24l-105 -92q-7 -7 -18 -7z" />
    <glyph glyph-name="ucircumflex" unicode="&#xfb;" 
d="M483.5 473.5q15.5 -15.5 15.5 -37.5v-389q0 -22 -15.5 -37.5t-36.5 -15.5q-22 0 -37.5 15.5t-15.5 37.5v16q-30 -32 -74 -53.5t-97 -21.5q-77 0 -116 39t-39 114v295q0 22 15.5 37.5t37.5 15.5q21 0 36.5 -15.5t15.5 -37.5v-257q0 -53 25 -75.5t72 -22.5q38 0 71 18
t53 45v292q0 22 15.5 37.5t36.5 15.5q22 0 37.5 -15.5zM284 672l-72 -92q-7 -10 -21 -10q-12 0 -20.5 8t-8.5 21q0 9 4 14l57 88q7 11 20 18t27 7h28q14 0 27 -7t20 -18l57 -88q4 -5 4 -14q0 -13 -8.5 -21t-20.5 -8q-14 0 -21 10z" />
    <glyph glyph-name="udieresis" unicode="&#xfc;" 
d="M483.5 473.5q15.5 -15.5 15.5 -37.5v-389q0 -22 -15.5 -37.5t-36.5 -15.5q-22 0 -37.5 15.5t-15.5 37.5v16q-30 -32 -74 -53.5t-97 -21.5q-77 0 -116 39t-39 114v295q0 22 15.5 37.5t37.5 15.5q21 0 36.5 -15.5t15.5 -37.5v-257q0 -53 25 -75.5t72 -22.5q38 0 71 18
t53 45v292q0 22 15.5 37.5t36.5 15.5q22 0 37.5 -15.5zM137 601q-17 17 -17 42q0 24 17 41t42 17q24 0 41 -17t17 -41q0 -25 -17 -42t-41 -17q-25 0 -42 17zM346.5 601q-17.5 17 -17.5 42q0 24 17.5 41t41.5 17t41.5 -17t17.5 -41q0 -25 -17.5 -42t-41.5 -17t-41.5 17z" />
    <glyph glyph-name="yacute" unicode="&#xfd;" horiz-adv-x="503" 
d="M63 -116.5q15 13.5 35 13.5h5q26 0 42.5 9.5t26.5 32.5l24 55l-172 424q-3 9 -3 19q0 22 15 37t36 15q16 0 30 -9.5t19 -23.5l130 -335l130 335q5 14 19 23.5t30 9.5q22 0 37 -15t15 -37q0 -8 -4 -20l-206 -504q-24 -59 -65 -83.5t-101 -25.5q-9 0 -15 1
q-18 2 -30.5 14.5t-12.5 31.5t15 32.5zM258 570q-11 0 -19 8t-8 19q0 9 8 19l97 100q10 10 24 10q13 0 22.5 -9.5t9.5 -23.5q0 -15 -11 -24l-105 -92q-7 -7 -18 -7z" />
    <glyph glyph-name="thorn" unicode="&#xfe;" horiz-adv-x="580" 
d="M173 -137q0 -22 -15.5 -37.5t-36.5 -15.5q-22 0 -37.5 15.5t-15.5 37.5v757q0 22 15.5 37.5t36.5 15.5q22 0 37.5 -15.5t15.5 -37.5v-203q27 37 67.5 57.5t87.5 20.5q63 0 111.5 -30.5t75.5 -87.5t27 -135t-27 -135.5t-75.5 -88t-111.5 -30.5q-46 0 -86 20t-69 59v-204z
M396 357.5q-37 44.5 -99 44.5q-36 0 -71 -19t-53 -46v-191q18 -27 53 -46t71 -19q62 0 99 45t37 116t-37 115.5z" />
    <glyph glyph-name="ydieresis" unicode="&#xff;" horiz-adv-x="503" 
d="M63 -116.5q15 13.5 35 13.5h5q26 0 42.5 9.5t26.5 32.5l24 55l-172 424q-3 9 -3 19q0 22 15 37t36 15q16 0 30 -9.5t19 -23.5l130 -335l130 335q5 14 19 23.5t30 9.5q22 0 37 -15t15 -37q0 -8 -4 -20l-206 -504q-24 -59 -65 -83.5t-101 -25.5q-9 0 -15 1
q-18 2 -30.5 14.5t-12.5 31.5t15 32.5zM105 601q-17 17 -17 42q0 24 17 41t42 17q24 0 41 -17t17 -41q0 -25 -17 -42t-41 -17q-25 0 -42 17zM314.5 601q-17.5 17 -17.5 42q0 24 17.5 41t41.5 17t41.5 -17t17.5 -41q0 -25 -17.5 -42t-41.5 -17t-41.5 17z" />
    <glyph glyph-name="Amacron" unicode="&#x100;" horiz-adv-x="673" 
d="M646 54q0 -25 -17.5 -42.5t-42.5 -17.5q-19 0 -34 10.5t-21 27.5l-35 96h-320l-35 -96q-6 -17 -21 -27.5t-34 -10.5q-25 0 -42.5 17.5t-17.5 42.5q0 6 5 21l209 532q12 29 38 47.5t58 18.5t58 -18.5t38 -47.5l209 -532q5 -15 5 -21zM213 231h246l-123 337zM177 742
q-9 9 -9 22t9 22t22 9h273q13 0 22 -9t9 -22t-9 -22t-22 -9h-273q-13 0 -22 9z" />
    <glyph glyph-name="amacron" unicode="&#x101;" horiz-adv-x="536" 
d="M412 453q56 -42 56 -133v-273q0 -22 -15.5 -37.5t-37.5 -15.5q-21 0 -36.5 15.5t-15.5 37.5v5q-27 -31 -67.5 -47.5t-88.5 -16.5q-41 0 -80 18.5t-63.5 54.5t-24.5 87q0 53 24.5 88t63 52t80.5 17q49 0 89.5 -16t66.5 -46v72q0 42 -31 66t-82 24q-61 0 -113 -36
q-11 -7 -24 -7q-17 0 -29.5 12.5t-12.5 29.5q0 10 5 19.5t13 14.5q77 57 178 57q89 0 145 -42zM314.5 73q30.5 13 48.5 37v73q-18 24 -48.5 37t-66.5 13q-45 0 -74 -24t-29 -63t29 -62.5t74 -23.5q36 0 66.5 13zM109 595q-9 9 -9 22t9 22t22 9h273q13 0 22 -9t9 -22t-9 -22
t-22 -9h-273q-13 0 -22 9z" />
    <glyph glyph-name="Abreve" unicode="&#x102;" horiz-adv-x="673" 
d="M646 54q0 -25 -17.5 -42.5t-42.5 -17.5q-19 0 -34 10.5t-21 27.5l-35 96h-320l-35 -96q-6 -17 -21 -27.5t-34 -10.5q-25 0 -42.5 17.5t-17.5 42.5q0 6 5 21l209 532q12 29 38 47.5t58 18.5t58 -18.5t38 -47.5l209 -532q5 -15 5 -21zM213 231h246l-123 337zM250.5 738.5
q-40.5 17.5 -72.5 49.5q-9 9 -9 22t9 22t22 9q15 0 23 -9q47 -49 113 -49t112 48q8 10 23 10q13 0 22 -9t9 -22q0 -11 -9 -22q-65 -67 -157 -67q-45 0 -85.5 17.5z" />
    <glyph glyph-name="abreve" unicode="&#x103;" horiz-adv-x="536" 
d="M412 453q56 -42 56 -133v-273q0 -22 -15.5 -37.5t-37.5 -15.5q-21 0 -36.5 15.5t-15.5 37.5v5q-27 -31 -67.5 -47.5t-88.5 -16.5q-41 0 -80 18.5t-63.5 54.5t-24.5 87q0 53 24.5 88t63 52t80.5 17q49 0 89.5 -16t66.5 -46v72q0 42 -31 66t-82 24q-61 0 -113 -36
q-11 -7 -24 -7q-17 0 -29.5 12.5t-12.5 29.5q0 10 5 19.5t13 14.5q77 57 178 57q89 0 145 -42zM314.5 73q30.5 13 48.5 37v73q-18 24 -48.5 37t-66.5 13q-45 0 -74 -24t-29 -63t29 -62.5t74 -23.5q36 0 66.5 13zM182.5 591.5q-40.5 17.5 -72.5 49.5q-9 9 -9 22t9 22t22 9
q15 0 23 -9q47 -49 113 -49t112 48q8 10 23 10q13 0 22 -9t9 -22q0 -11 -9 -22q-65 -67 -157 -67q-45 0 -85.5 17.5z" />
    <glyph glyph-name="Aogonek" unicode="&#x104;" horiz-adv-x="673" 
d="M636 -122.5q10 -9.5 10 -24.5q0 -12 -7.5 -20.5t-15.5 -11.5q-24 -7 -57 -7q-44 0 -75 20t-31 57q0 34 30.5 62t75.5 44q-25 10 -35 35l-35 96h-320l-35 -96q-6 -17 -21 -27.5t-34 -10.5q-25 0 -42.5 17.5t-17.5 42.5q0 6 5 21l209 532q12 29 38 47.5t58 18.5t58 -18.5
t38 -47.5l209 -532q5 -15 5 -21q0 -26 -20 -44q1 -1 -2 -4q-38 -31 -52.5 -50t-14.5 -40q0 -14 10.5 -22.5t24.5 -8.5q6 0 11 1t10 1q13 0 23 -9.5zM213 231h246l-123 337z" />
    <glyph glyph-name="aogonek" unicode="&#x105;" horiz-adv-x="536" 
d="M392 -46.5q-13 -18.5 -13 -37.5q0 -14 10.5 -22.5t24.5 -8.5q6 0 11 1t10 1q13 0 23 -9.5t10 -24.5q0 -12 -7.5 -20.5t-15.5 -11.5q-24 -7 -57 -7q-44 0 -75 20t-31 57q0 35 32.5 63.5t78.5 44.5q-13 7 -21.5 20t-8.5 28v5q-27 -31 -67.5 -47.5t-88.5 -16.5
q-41 0 -80 18.5t-63.5 54.5t-24.5 87q0 53 24.5 88t63 52t80.5 17q49 0 89.5 -16t66.5 -46v72q0 42 -31 66t-82 24q-61 0 -113 -36q-11 -7 -24 -7q-17 0 -29.5 12.5t-12.5 29.5q0 10 5 19.5t13 14.5q77 57 178 57q89 0 145 -42t56 -133v-273q0 -16 -8 -28.5t-22 -19.5
q-33 -27 -46 -45.5zM314.5 73q30.5 13 48.5 37v73q-18 24 -48.5 37t-66.5 13q-45 0 -74 -24t-29 -63t29 -62.5t74 -23.5q36 0 66.5 13z" />
    <glyph glyph-name="Cacute" unicode="&#x106;" horiz-adv-x="672" 
d="M211.5 31.5q-78.5 43.5 -124.5 122.5t-46 179t46 179t124.5 122.5t174.5 43.5q144 0 234 -99q14 -14 14 -37q0 -22 -16 -38.5t-39 -16.5q-26 0 -42 19q-28 32 -67 50t-84 18q-63 0 -114.5 -31t-81 -86t-29.5 -124t29.5 -124t81 -86t114.5 -31q46 0 85 18t67 50
q17 19 41 19q23 0 39 -16t16 -39t-14 -37q-90 -99 -234 -99q-96 0 -174.5 43.5zM393 717q-11 0 -19 8t-8 19q0 9 8 19l97 100q10 10 24 10q13 0 22.5 -9.5t9.5 -23.5q0 -15 -11 -24l-105 -92q-7 -7 -18 -7z" />
    <glyph glyph-name="cacute" unicode="&#x107;" horiz-adv-x="497" 
d="M70 372q32 58 89 90.5t129 32.5q93 0 153 -52q8 -6 12.5 -16t4.5 -20q0 -19 -13.5 -33t-33.5 -14q-18 0 -31 11q-37 31 -87 31q-66 0 -106 -44.5t-40 -115.5t40 -116t106 -45q50 0 87 31q13 11 30 11q20 0 34 -13.5t14 -33.5q0 -10 -4.5 -20t-12.5 -16q-60 -52 -153 -52
q-72 0 -129 32.5t-89 90.5t-32 131q0 72 32 130zM293 570q-11 0 -19 8t-8 19q0 9 8 19l97 100q10 10 24 10q13 0 22.5 -9.5t9.5 -23.5q0 -15 -11 -24l-105 -92q-7 -7 -18 -7z" />
    <glyph glyph-name="Ccircumflex" unicode="&#x108;" horiz-adv-x="672" 
d="M211.5 31.5q-78.5 43.5 -124.5 122.5t-46 179t46 179t124.5 122.5t174.5 43.5q144 0 234 -99q14 -14 14 -37q0 -22 -16 -38.5t-39 -16.5q-26 0 -42 19q-28 32 -67 50t-84 18q-63 0 -114.5 -31t-81 -86t-29.5 -124t29.5 -124t81 -86t114.5 -31q46 0 85 18t67 50
q17 19 41 19q23 0 39 -16t16 -39t-14 -37q-90 -99 -234 -99q-96 0 -174.5 43.5zM387 819l-72 -92q-7 -10 -21 -10q-12 0 -20.5 8t-8.5 21q0 9 4 14l57 88q7 11 20 18t27 7h28q14 0 27 -7t20 -18l57 -88q4 -5 4 -14q0 -13 -8.5 -21t-20.5 -8q-14 0 -21 10z" />
    <glyph glyph-name="ccircumflex" unicode="&#x109;" horiz-adv-x="497" 
d="M70 372q32 58 89 90.5t129 32.5q93 0 153 -52q8 -6 12.5 -16t4.5 -20q0 -19 -13.5 -33t-33.5 -14q-18 0 -31 11q-37 31 -87 31q-66 0 -106 -44.5t-40 -115.5t40 -116t106 -45q50 0 87 31q13 11 30 11q20 0 34 -13.5t14 -33.5q0 -10 -4.5 -20t-12.5 -16q-60 -52 -153 -52
q-72 0 -129 32.5t-89 90.5t-32 131q0 72 32 130zM287 672l-72 -92q-7 -10 -21 -10q-12 0 -20.5 8t-8.5 21q0 9 4 14l57 88q7 11 20 18t27 7h28q14 0 27 -7t20 -18l57 -88q4 -5 4 -14q0 -13 -8.5 -21t-20.5 -8q-14 0 -21 10z" />
    <glyph glyph-name="Cdotaccent" unicode="&#x10a;" horiz-adv-x="672" 
d="M211.5 31.5q-78.5 43.5 -124.5 122.5t-46 179t46 179t124.5 122.5t174.5 43.5q144 0 234 -99q14 -14 14 -37q0 -22 -16 -38.5t-39 -16.5q-26 0 -42 19q-28 32 -67 50t-84 18q-63 0 -114.5 -31t-81 -86t-29.5 -124t29.5 -124t81 -86t114.5 -31q46 0 85 18t67 50
q17 19 41 19q23 0 39 -16t16 -39t-14 -37q-90 -99 -234 -99q-96 0 -174.5 43.5zM344.5 830.5q17.5 17.5 41.5 17.5t41 -17.5t17 -41.5q0 -25 -17 -42t-41 -17t-41.5 17t-17.5 42q0 24 17.5 41.5z" />
    <glyph glyph-name="cdotaccent" unicode="&#x10b;" horiz-adv-x="497" 
d="M70 372q32 58 89 90.5t129 32.5q93 0 153 -52q8 -6 12.5 -16t4.5 -20q0 -19 -13.5 -33t-33.5 -14q-18 0 -31 11q-37 31 -87 31q-66 0 -106 -44.5t-40 -115.5t40 -116t106 -45q50 0 87 31q13 11 30 11q20 0 34 -13.5t14 -33.5q0 -10 -4.5 -20t-12.5 -16q-60 -52 -153 -52
q-72 0 -129 32.5t-89 90.5t-32 131q0 72 32 130zM244.5 683.5q17.5 17.5 41.5 17.5t41 -17.5t17 -41.5q0 -25 -17 -42t-41 -17t-41.5 17t-17.5 42q0 24 17.5 41.5z" />
    <glyph glyph-name="Ccaron" unicode="&#x10c;" horiz-adv-x="672" 
d="M211.5 31.5q-78.5 43.5 -124.5 122.5t-46 179t46 179t124.5 122.5t174.5 43.5q144 0 234 -99q14 -14 14 -37q0 -22 -16 -38.5t-39 -16.5q-26 0 -42 19q-28 32 -67 50t-84 18q-63 0 -114.5 -31t-81 -86t-29.5 -124t29.5 -124t81 -86t114.5 -31q46 0 85 18t67 50
q17 19 41 19q23 0 39 -16t16 -39t-14 -37q-90 -99 -234 -99q-96 0 -174.5 43.5zM497.5 865q8.5 -8 8.5 -21q0 -9 -4 -14l-57 -88q-7 -11 -20 -18t-27 -7h-28q-14 0 -27 7t-20 18l-57 88q-4 5 -4 14q0 13 8.5 21t20.5 8q14 0 21 -10l72 -92l72 92q7 10 21 10q12 0 20.5 -8z
" />
    <glyph glyph-name="ccaron" unicode="&#x10d;" horiz-adv-x="497" 
d="M70 372q32 58 89 90.5t129 32.5q93 0 153 -52q8 -6 12.5 -16t4.5 -20q0 -19 -13.5 -33t-33.5 -14q-18 0 -31 11q-37 31 -87 31q-66 0 -106 -44.5t-40 -115.5t40 -116t106 -45q50 0 87 31q13 11 30 11q20 0 34 -13.5t14 -33.5q0 -10 -4.5 -20t-12.5 -16q-60 -52 -153 -52
q-72 0 -129 32.5t-89 90.5t-32 131q0 72 32 130zM397.5 718q8.5 -8 8.5 -21q0 -9 -4 -14l-57 -88q-7 -11 -20 -18t-27 -7h-28q-14 0 -27 7t-20 18l-57 88q-4 5 -4 14q0 13 8.5 21t20.5 8q14 0 21 -10l72 -92l72 92q7 10 21 10q12 0 20.5 -8z" />
    <glyph glyph-name="Dcaron" unicode="&#x10e;" horiz-adv-x="710" 
d="M87 16q-16 16 -16 46v543q0 30 16 46t46 16h186q103 0 182 -42.5t123 -118.5t44 -173t-44 -172.5t-123 -118t-182 -42.5h-186q-30 0 -46 16zM319 103q70 0 122 30.5t79.5 83t27.5 116.5q0 65 -26.5 117.5t-78.5 83t-124 30.5h-131v-461h131zM467.5 865q8.5 -8 8.5 -21
q0 -9 -4 -14l-57 -88q-7 -11 -20 -18t-27 -7h-28q-14 0 -27 7t-20 18l-57 88q-4 5 -4 14q0 13 8.5 21t20.5 8q14 0 21 -10l72 -92l72 92q7 10 21 10q12 0 20.5 -8z" />
    <glyph glyph-name="dcaron" unicode="&#x10f;" horiz-adv-x="670" 
d="M497.5 657.5q15.5 -15.5 15.5 -37.5v-573q0 -22 -15.5 -37.5t-37.5 -15.5q-21 0 -36.5 15.5t-15.5 37.5v18q-28 -36 -68.5 -56.5t-86.5 -20.5q-62 0 -111 30.5t-76.5 87.5t-27.5 135q0 77 27.5 134.5t76.5 88.5t111 31q45 0 85.5 -20.5t69.5 -58.5v204q0 22 15.5 37.5
t36.5 15.5q22 0 37.5 -15.5zM355 99q35 18 53 46v192q-18 28 -53 46.5t-72 18.5q-62 0 -99 -45t-37 -116t37 -115.5t99 -44.5q37 0 72 18zM574.5 470q-7.5 7 -7.5 17q0 6 4 11.5t9 10.5q14 14 25 31.5t14 33.5q-4 -2 -14 -2q-20 0 -34 14.5t-14 36.5q0 23 16 39.5t39 16.5
q26 0 44.5 -20t18.5 -55q0 -38 -18.5 -73.5t-48.5 -61.5q-8 -6 -16 -6q-10 0 -17.5 7z" />
    <glyph glyph-name="Dcroat" unicode="&#x110;" horiz-adv-x="736" 
d="M527 624.5q79 -42.5 123 -118.5t44 -173t-44 -172.5t-123 -118t-182 -42.5h-186q-30 0 -46 16t-16 46v223h-51q-17 0 -30 12.5t-13 30.5t13 30.5t30 12.5h51v234q0 30 16 46t46 16h186q103 0 182 -42.5zM467 133.5q52 30.5 79.5 83t27.5 116.5q0 65 -26.5 117.5t-78.5 83
t-124 30.5h-131v-193h121q17 0 30 -12.5t13 -30.5t-13 -30.5t-30 -12.5h-121v-182h131q70 0 122 30.5z" />
    <glyph glyph-name="dcroat" unicode="&#x111;" horiz-adv-x="585" 
d="M573 584q9 -9 9 -22t-9 -22t-22 -9h-38v-484q0 -22 -15.5 -37.5t-37.5 -15.5q-21 0 -36.5 15.5t-15.5 37.5v18q-28 -36 -68.5 -56.5t-86.5 -20.5q-62 0 -111 30.5t-76.5 87.5t-27.5 135q0 77 27.5 134.5t76.5 88.5t111 31q45 0 85.5 -20.5t69.5 -58.5v115h-125
q-13 0 -22 9t-9 22t9 22t22 9h125v27q0 22 15.5 37.5t36.5 15.5q22 0 37.5 -15.5t15.5 -37.5v-27h38q13 0 22 -9zM355 99q35 18 53 46v192q-18 28 -53 46.5t-72 18.5q-62 0 -99 -45t-37 -116t37 -115.5t99 -44.5q37 0 72 18z" />
    <glyph glyph-name="Emacron" unicode="&#x112;" horiz-adv-x="577" 
d="M87 16q-16 16 -16 46v543q0 30 16 46t46 16h349q21 0 36.5 -15t15.5 -37q0 -21 -15.5 -36t-36.5 -15h-294v-173h287q21 0 36.5 -15t15.5 -36q0 -22 -15.5 -37t-36.5 -15h-287v-185h294q21 0 36.5 -15t15.5 -36q0 -22 -15.5 -37t-36.5 -15h-349q-30 0 -46 16zM147 742
q-9 9 -9 22t9 22t22 9h273q13 0 22 -9t9 -22t-9 -22t-22 -9h-273q-13 0 -22 9z" />
    <glyph glyph-name="emacron" unicode="&#x113;" horiz-adv-x="557" 
d="M69.5 369.5q31.5 57.5 87.5 91.5t126 34t124.5 -32.5t84 -87.5t29.5 -119q0 -23 -16 -36t-46 -13h-311q6 -57 47 -95t107 -38q27 0 56 8.5t54 23.5q9 6 23 6q17 0 29.5 -12.5t12.5 -29.5q0 -21 -19 -35q-70 -47 -167 -47q-72 0 -129.5 31.5t-90.5 89.5t-33 133
q0 70 31.5 127.5zM186 370.5q-35 -38.5 -39 -89.5h272q-1 31 -16 60.5t-45 48.5t-75 19q-62 0 -97 -38.5zM124 595q-9 9 -9 22t9 22t22 9h273q13 0 22 -9t9 -22t-9 -22t-22 -9h-273q-13 0 -22 9z" />
    <glyph glyph-name="Ebreve" unicode="&#x114;" horiz-adv-x="577" 
d="M87 16q-16 16 -16 46v543q0 30 16 46t46 16h349q21 0 36.5 -15t15.5 -37q0 -21 -15.5 -36t-36.5 -15h-294v-173h287q21 0 36.5 -15t15.5 -36q0 -22 -15.5 -37t-36.5 -15h-287v-185h294q21 0 36.5 -15t15.5 -36q0 -22 -15.5 -37t-36.5 -15h-349q-30 0 -46 16zM220.5 738.5
q-40.5 17.5 -72.5 49.5q-9 9 -9 22t9 22t22 9q15 0 23 -9q47 -49 113 -49t112 48q8 10 23 10q13 0 22 -9t9 -22q0 -11 -9 -22q-65 -67 -157 -67q-45 0 -85.5 17.5z" />
    <glyph glyph-name="ebreve" unicode="&#x115;" horiz-adv-x="557" 
d="M69.5 369.5q31.5 57.5 87.5 91.5t126 34t124.5 -32.5t84 -87.5t29.5 -119q0 -23 -16 -36t-46 -13h-311q6 -57 47 -95t107 -38q27 0 56 8.5t54 23.5q9 6 23 6q17 0 29.5 -12.5t12.5 -29.5q0 -21 -19 -35q-70 -47 -167 -47q-72 0 -129.5 31.5t-90.5 89.5t-33 133
q0 70 31.5 127.5zM186 370.5q-35 -38.5 -39 -89.5h272q-1 31 -16 60.5t-45 48.5t-75 19q-62 0 -97 -38.5zM197.5 591.5q-40.5 17.5 -72.5 49.5q-9 9 -9 22t9 22t22 9q15 0 23 -9q47 -49 113 -49t112 48q8 10 23 10q13 0 22 -9t9 -22q0 -11 -9 -22q-65 -67 -157 -67
q-45 0 -85.5 17.5z" />
    <glyph glyph-name="Edotaccent" unicode="&#x116;" horiz-adv-x="577" 
d="M87 16q-16 16 -16 46v543q0 30 16 46t46 16h349q21 0 36.5 -15t15.5 -37q0 -21 -15.5 -36t-36.5 -15h-294v-173h287q21 0 36.5 -15t15.5 -36q0 -22 -15.5 -37t-36.5 -15h-287v-185h294q21 0 36.5 -15t15.5 -36q0 -22 -15.5 -37t-36.5 -15h-349q-30 0 -46 16zM264.5 830.5
q17.5 17.5 41.5 17.5t41 -17.5t17 -41.5q0 -25 -17 -42t-41 -17t-41.5 17t-17.5 42q0 24 17.5 41.5z" />
    <glyph glyph-name="edotaccent" unicode="&#x117;" horiz-adv-x="557" 
d="M69.5 369.5q31.5 57.5 87.5 91.5t126 34t124.5 -32.5t84 -87.5t29.5 -119q0 -23 -16 -36t-46 -13h-311q6 -57 47 -95t107 -38q27 0 56 8.5t54 23.5q9 6 23 6q17 0 29.5 -12.5t12.5 -29.5q0 -21 -19 -35q-70 -47 -167 -47q-72 0 -129.5 31.5t-90.5 89.5t-33 133
q0 70 31.5 127.5zM186 370.5q-35 -38.5 -39 -89.5h272q-1 31 -16 60.5t-45 48.5t-75 19q-62 0 -97 -38.5zM241.5 683.5q17.5 17.5 41.5 17.5t41 -17.5t17 -41.5q0 -25 -17 -42t-41 -17t-41.5 17t-17.5 42q0 24 17.5 41.5z" />
    <glyph glyph-name="Eogonek" unicode="&#x118;" horiz-adv-x="577" 
d="M453.5 -44q-14.5 -19 -14.5 -40q0 -14 10.5 -22.5t24.5 -8.5q6 0 11 1t10 1q13 0 23 -9.5t10 -24.5q0 -12 -7.5 -20.5t-15.5 -11.5q-24 -7 -57 -7q-44 0 -75 20t-31 57q0 36 33 64.5t81 44.5h-323q-30 0 -46 16t-16 46v543q0 30 16 46t46 16h349q21 0 36.5 -15t15.5 -37
q0 -21 -15.5 -36t-36.5 -15h-294v-173h287q21 0 36.5 -15t15.5 -36q0 -22 -15.5 -37t-36.5 -15h-287v-185h294q21 0 36.5 -15t15.5 -36q0 -15 -8 -27t-20 -19q-38 -31 -52.5 -50z" />
    <glyph glyph-name="eogonek" unicode="&#x119;" horiz-adv-x="557" 
d="M161.5 19.5q-57.5 31.5 -90.5 89.5t-33 133q0 70 31.5 127.5t87.5 91.5t126 34t124.5 -32.5t84 -87.5t29.5 -119q0 -23 -16 -36t-46 -13h-311q6 -57 47 -95t107 -38q27 0 56 8.5t54 23.5q9 6 22 6q18 0 30.5 -12.5t12.5 -30.5q0 -19 -15 -32q-76 -67 -76 -112
q0 -20 11 -30t26 -10q7 0 10 1q15 2 27.5 -8t12.5 -26q0 -12 -7.5 -21t-18.5 -12q-27 -5 -50 -5q-44 0 -75 20t-31 57q0 52 80 106q-40 -9 -80 -9q-72 0 -129.5 31.5zM186 370.5q-35 -38.5 -39 -89.5h272q-1 31 -16 60.5t-45 48.5t-75 19q-62 0 -97 -38.5z" />
    <glyph glyph-name="Ecaron" unicode="&#x11a;" horiz-adv-x="577" 
d="M87 16q-16 16 -16 46v543q0 30 16 46t46 16h349q21 0 36.5 -15t15.5 -37q0 -21 -15.5 -36t-36.5 -15h-294v-173h287q21 0 36.5 -15t15.5 -36q0 -22 -15.5 -37t-36.5 -15h-287v-185h294q21 0 36.5 -15t15.5 -36q0 -22 -15.5 -37t-36.5 -15h-349q-30 0 -46 16zM417.5 865
q8.5 -8 8.5 -21q0 -9 -4 -14l-57 -88q-7 -11 -20 -18t-27 -7h-28q-14 0 -27 7t-20 18l-57 88q-4 5 -4 14q0 13 8.5 21t20.5 8q14 0 21 -10l72 -92l72 92q7 10 21 10q12 0 20.5 -8z" />
    <glyph glyph-name="ecaron" unicode="&#x11b;" horiz-adv-x="557" 
d="M69.5 369.5q31.5 57.5 87.5 91.5t126 34t124.5 -32.5t84 -87.5t29.5 -119q0 -23 -16 -36t-46 -13h-311q6 -57 47 -95t107 -38q27 0 56 8.5t54 23.5q9 6 23 6q17 0 29.5 -12.5t12.5 -29.5q0 -21 -19 -35q-70 -47 -167 -47q-72 0 -129.5 31.5t-90.5 89.5t-33 133
q0 70 31.5 127.5zM186 370.5q-35 -38.5 -39 -89.5h272q-1 31 -16 60.5t-45 48.5t-75 19q-62 0 -97 -38.5zM394.5 718q8.5 -8 8.5 -21q0 -9 -4 -14l-57 -88q-7 -11 -20 -18t-27 -7h-28q-14 0 -27 7t-20 18l-57 88q-4 5 -4 14q0 13 8.5 21t20.5 8q14 0 21 -10l72 -92l72 92
q7 10 21 10q12 0 20.5 -8z" />
    <glyph glyph-name="Gcircumflex" unicode="&#x11c;" horiz-adv-x="717" 
d="M650 342q16 -16 16 -46v-143q0 -24 -7.5 -42.5t-24.5 -33.5q-103 -90 -243 -90q-97 0 -177 43.5t-126.5 122t-46.5 180.5t46.5 180.5t126.5 121.5t177 43q137 0 227 -90q16 -16 16 -39q0 -22 -15.5 -38t-38.5 -16t-39 16q-30 30 -68 46.5t-82 16.5q-65 0 -117.5 -31
t-82.5 -86t-30 -124t30 -124t82.5 -86.5t117.5 -31.5q47 0 89.5 18t68.5 42v104h-153q-21 0 -36.5 15t-15.5 37q0 21 15.5 36t36.5 15h208q30 0 46 -16zM392 819l-72 -92q-7 -10 -21 -10q-12 0 -20.5 8t-8.5 21q0 9 4 14l57 88q7 11 20 18t27 7h28q14 0 27 -7t20 -18l57 -88
q4 -5 4 -14q0 -13 -8.5 -21t-20.5 -8q-14 0 -21 10z" />
    <glyph glyph-name="gcircumflex" unicode="&#x11d;" horiz-adv-x="580" 
d="M496.5 473.5q15.5 -15.5 15.5 -37.5v-411q0 -119 -71.5 -170t-176.5 -51q-53 0 -94.5 11t-79.5 38q-19 14 -19 36q0 18 13 31t31 13q14 0 25 -8q50 -35 124 -35q60 0 101.5 31.5t41.5 99.5v58q-29 -37 -69 -58.5t-86 -21.5q-62 0 -110.5 29t-76 85t-27.5 134
q0 76 27.5 132.5t76 86t110.5 29.5q46 0 86 -20.5t69 -58.5v20q0 22 15.5 37.5t37.5 15.5q21 0 36.5 -15.5zM354 111q35 19 53 46v180q-18 27 -53 46t-71 19q-62 0 -99 -42.5t-37 -112.5t37 -112.5t99 -42.5q36 0 71 19zM294 672l-72 -92q-7 -10 -21 -10q-12 0 -20.5 8
t-8.5 21q0 9 4 14l57 88q7 11 20 18t27 7h28q14 0 27 -7t20 -18l57 -88q4 -5 4 -14q0 -13 -8.5 -21t-20.5 -8q-14 0 -21 10z" />
    <glyph glyph-name="Gbreve" unicode="&#x11e;" horiz-adv-x="717" 
d="M650 342q16 -16 16 -46v-143q0 -24 -7.5 -42.5t-24.5 -33.5q-103 -90 -243 -90q-97 0 -177 43.5t-126.5 122t-46.5 180.5t46.5 180.5t126.5 121.5t177 43q137 0 227 -90q16 -16 16 -39q0 -22 -15.5 -38t-38.5 -16t-39 16q-30 30 -68 46.5t-82 16.5q-65 0 -117.5 -31
t-82.5 -86t-30 -124t30 -124t82.5 -86.5t117.5 -31.5q47 0 89.5 18t68.5 42v104h-153q-21 0 -36.5 15t-15.5 37q0 21 15.5 36t36.5 15h208q30 0 46 -16zM305.5 738.5q-40.5 17.5 -72.5 49.5q-9 9 -9 22t9 22t22 9q15 0 23 -9q47 -49 113 -49t112 48q8 10 23 10q13 0 22 -9
t9 -22q0 -11 -9 -22q-65 -67 -157 -67q-45 0 -85.5 17.5z" />
    <glyph glyph-name="gbreve" unicode="&#x11f;" horiz-adv-x="580" 
d="M496.5 473.5q15.5 -15.5 15.5 -37.5v-411q0 -119 -71.5 -170t-176.5 -51q-53 0 -94.5 11t-79.5 38q-19 14 -19 36q0 18 13 31t31 13q14 0 25 -8q50 -35 124 -35q60 0 101.5 31.5t41.5 99.5v58q-29 -37 -69 -58.5t-86 -21.5q-62 0 -110.5 29t-76 85t-27.5 134
q0 76 27.5 132.5t76 86t110.5 29.5q46 0 86 -20.5t69 -58.5v20q0 22 15.5 37.5t37.5 15.5q21 0 36.5 -15.5zM354 111q35 19 53 46v180q-18 27 -53 46t-71 19q-62 0 -99 -42.5t-37 -112.5t37 -112.5t99 -42.5q36 0 71 19zM207.5 591.5q-40.5 17.5 -72.5 49.5q-9 9 -9 22t9 22
t22 9q15 0 23 -9q47 -49 113 -49t112 48q8 10 23 10q13 0 22 -9t9 -22q0 -11 -9 -22q-65 -67 -157 -67q-45 0 -85.5 17.5z" />
    <glyph glyph-name="Gdotaccent" unicode="&#x120;" horiz-adv-x="717" 
d="M650 342q16 -16 16 -46v-143q0 -24 -7.5 -42.5t-24.5 -33.5q-103 -90 -243 -90q-97 0 -177 43.5t-126.5 122t-46.5 180.5t46.5 180.5t126.5 121.5t177 43q137 0 227 -90q16 -16 16 -39q0 -22 -15.5 -38t-38.5 -16t-39 16q-30 30 -68 46.5t-82 16.5q-65 0 -117.5 -31
t-82.5 -86t-30 -124t30 -124t82.5 -86.5t117.5 -31.5q47 0 89.5 18t68.5 42v104h-153q-21 0 -36.5 15t-15.5 37q0 21 15.5 36t36.5 15h208q30 0 46 -16zM349.5 830.5q17.5 17.5 41.5 17.5t41 -17.5t17 -41.5q0 -25 -17 -42t-41 -17t-41.5 17t-17.5 42q0 24 17.5 41.5z" />
    <glyph glyph-name="gdotaccent" unicode="&#x121;" horiz-adv-x="580" 
d="M496.5 473.5q15.5 -15.5 15.5 -37.5v-411q0 -119 -71.5 -170t-176.5 -51q-53 0 -94.5 11t-79.5 38q-19 14 -19 36q0 18 13 31t31 13q14 0 25 -8q50 -35 124 -35q60 0 101.5 31.5t41.5 99.5v58q-29 -37 -69 -58.5t-86 -21.5q-62 0 -110.5 29t-76 85t-27.5 134
q0 76 27.5 132.5t76 86t110.5 29.5q46 0 86 -20.5t69 -58.5v20q0 22 15.5 37.5t37.5 15.5q21 0 36.5 -15.5zM354 111q35 19 53 46v180q-18 27 -53 46t-71 19q-62 0 -99 -42.5t-37 -112.5t37 -112.5t99 -42.5q36 0 71 19zM251.5 683.5q17.5 17.5 41.5 17.5t41 -17.5t17 -41.5
q0 -25 -17 -42t-41 -17t-41.5 17t-17.5 42q0 24 17.5 41.5z" />
    <glyph glyph-name="uni0122" unicode="&#x122;" horiz-adv-x="717" 
d="M650 342q16 -16 16 -46v-143q0 -24 -7.5 -42.5t-24.5 -33.5q-103 -90 -243 -90q-97 0 -177 43.5t-126.5 122t-46.5 180.5t46.5 180.5t126.5 121.5t177 43q137 0 227 -90q16 -16 16 -39q0 -22 -15.5 -38t-38.5 -16t-39 16q-30 30 -68 46.5t-82 16.5q-65 0 -117.5 -31
t-82.5 -86t-30 -124t30 -124t82.5 -86.5t117.5 -31.5q47 0 89.5 18t68.5 42v104h-153q-21 0 -36.5 15t-15.5 37q0 21 15.5 36t36.5 15h208q30 0 46 -16zM353.5 -272q-7.5 7 -7.5 17q0 6 4 11.5t9 10.5q14 14 25 31.5t14 33.5q-4 -2 -14 -2q-20 0 -34 14.5t-14 36.5
q0 23 16 39.5t39 16.5q26 0 44.5 -20t18.5 -55q0 -38 -18.5 -73.5t-48.5 -61.5q-8 -6 -16 -6q-10 0 -17.5 7z" />
    <glyph glyph-name="uni0123" unicode="&#x123;" horiz-adv-x="580" 
d="M250.5 577q-18.5 20 -18.5 55q0 38 18.5 73.5t48.5 61.5q8 6 16 6q10 0 17.5 -7t7.5 -17q0 -6 -4 -11.5t-9 -10.5q-14 -14 -25 -31.5t-14 -33.5q4 2 14 2q20 0 34 -14.5t14 -36.5q0 -23 -16 -39.5t-39 -16.5q-26 0 -44.5 20zM496.5 473.5q15.5 -15.5 15.5 -37.5v-411
q0 -119 -71.5 -170t-176.5 -51q-53 0 -94.5 11t-79.5 38q-19 14 -19 36q0 18 13 31t31 13q14 0 25 -8q50 -35 124 -35q60 0 101.5 31.5t41.5 99.5v58q-29 -37 -69 -58.5t-86 -21.5q-62 0 -110.5 29t-76 85t-27.5 134q0 76 27.5 132.5t76 86t110.5 29.5q46 0 86 -20.5
t69 -58.5v20q0 22 15.5 37.5t37.5 15.5q21 0 36.5 -15.5zM354 111q35 19 53 46v180q-18 27 -53 46t-71 19q-62 0 -99 -42.5t-37 -112.5t37 -112.5t99 -42.5q36 0 71 19z" />
    <glyph glyph-name="Hcircumflex" unicode="&#x124;" horiz-adv-x="723" 
d="M552 11.5q-17 17.5 -17 41.5v238h-347v-238q0 -24 -17 -41.5t-41 -17.5q-25 0 -42 17.5t-17 41.5v561q0 24 17 41.5t41 17.5q25 0 42 -17.5t17 -41.5v-220h347v220q0 24 17 41.5t42 17.5q24 0 41 -17.5t17 -41.5v-561q0 -24 -17 -41.5t-42 -17.5q-24 0 -41 17.5zM363 819
l-72 -92q-7 -10 -21 -10q-12 0 -20.5 8t-8.5 21q0 9 4 14l57 88q7 11 20 18t27 7h28q14 0 27 -7t20 -18l57 -88q4 -5 4 -14q0 -13 -8.5 -21t-20.5 -8q-14 0 -21 10z" />
    <glyph glyph-name="hcircumflex" unicode="&#x125;" horiz-adv-x="568" 
d="M410.5 9.5q-15.5 15.5 -15.5 37.5v257q0 53 -25.5 75.5t-72.5 22.5q-37 0 -70 -19t-54 -46v-290q0 -22 -15.5 -37.5t-36.5 -15.5q-22 0 -37.5 15.5t-15.5 37.5v573q0 22 15.5 37.5t37.5 15.5q21 0 36.5 -15.5t15.5 -37.5v-203q27 32 72.5 55t98.5 23q77 0 116.5 -39
t39.5 -114v-295q0 -22 -15.5 -37.5t-37.5 -15.5q-21 0 -36.5 15.5zM285 819l-72 -92q-7 -10 -21 -10q-12 0 -20.5 8t-8.5 21q0 9 4 14l57 88q7 11 20 18t27 7h28q14 0 27 -7t20 -18l57 -88q4 -5 4 -14q0 -13 -8.5 -21t-20.5 -8q-14 0 -21 10z" />
    <glyph glyph-name="Hbar" unicode="&#x126;" horiz-adv-x="741" 
d="M732 549q9 -9 9 -22t-9 -22t-22 -9h-49v-443q0 -24 -17 -41.5t-42 -17.5q-24 0 -41 17.5t-17 41.5v238h-347v-238q0 -24 -17 -41.5t-41 -17.5q-25 0 -42 17.5t-17 41.5v443h-46q-13 0 -22 9t-9 22t9 22t22 9h46v56q0 24 17 41.5t41 17.5q25 0 42 -17.5t17 -41.5v-56h347
v56q0 24 17 41.5t42 17.5q24 0 41 -17.5t17 -41.5v-56h49q13 0 22 -9zM544 394v102h-347v-102h347z" />
    <glyph glyph-name="hbar" unicode="&#x127;" horiz-adv-x="571" 
d="M463.5 456q39.5 -39 39.5 -114v-295q0 -22 -15.5 -37.5t-37.5 -15.5q-21 0 -36.5 15.5t-15.5 37.5v257q0 53 -25.5 75.5t-72.5 22.5q-37 0 -70 -19t-54 -46v-290q0 -22 -15.5 -37.5t-36.5 -15.5q-22 0 -37.5 15.5t-15.5 37.5v484h-37q-13 0 -22 9t-9 22t9 22t22 9h37v27
q0 22 15.5 37.5t37.5 15.5q21 0 36.5 -15.5t15.5 -37.5v-27h126q13 0 22 -9t9 -22t-9 -22t-22 -9h-126v-114q27 32 72.5 55t98.5 23q77 0 116.5 -39z" />
    <glyph glyph-name="Itilde" unicode="&#x128;" horiz-adv-x="259" 
d="M88 11.5q-17 17.5 -17 41.5v561q0 24 17 41.5t42 17.5q24 0 41 -17.5t17 -41.5v-561q0 -24 -17 -41.5t-41 -17.5q-25 0 -42 17.5zM145.5 733q-16.5 12 -33.5 34q-12 16 -21.5 24t-21.5 8q-15 0 -26 -13t-15 -40q-2 -11 -9.5 -18t-18.5 -7q-13 0 -21.5 10t-6.5 22
q6 52 32 80t69 28q26 0 42 -12t33 -34q14 -17 23 -24.5t21 -7.5q15 0 25.5 13t14.5 40q1 11 9 18t19 7q13 0 21.5 -9.5t7.5 -22.5q-6 -52 -32 -80t-69 -28q-26 0 -42.5 12z" />
    <glyph glyph-name="itilde" unicode="&#x129;" horiz-adv-x="241" 
d="M83.5 9.5q-15.5 15.5 -15.5 37.5v389q0 22 15.5 37.5t37.5 15.5q21 0 36.5 -15.5t15.5 -37.5v-389q0 -22 -15.5 -37.5t-37.5 -15.5q-21 0 -36.5 15.5zM135.5 586q-16.5 12 -33.5 34q-12 16 -21.5 24t-21.5 8q-15 0 -26 -13t-15 -40q-2 -11 -9.5 -18t-18.5 -7
q-13 0 -21.5 10t-6.5 22q6 52 32 80t69 28q26 0 42 -12t33 -34q14 -17 23 -24.5t21 -7.5q15 0 25.5 13t14.5 40q1 11 9 18t19 7q13 0 21.5 -9.5t7.5 -22.5q-6 -52 -32 -80t-69 -28q-26 0 -42.5 12z" />
    <glyph glyph-name="Imacron" unicode="&#x12a;" horiz-adv-x="259" 
d="M88 11.5q-17 17.5 -17 41.5v561q0 24 17 41.5t42 17.5q24 0 41 -17.5t17 -41.5v-561q0 -24 -17 -41.5t-41 -17.5q-25 0 -42 17.5zM-29 742q-9 9 -9 22t9 22t22 9h273q13 0 22 -9t9 -22t-9 -22t-22 -9h-273q-13 0 -22 9z" />
    <glyph glyph-name="imacron" unicode="&#x12b;" horiz-adv-x="241" 
d="M83.5 9.5q-15.5 15.5 -15.5 37.5v389q0 22 15.5 37.5t37.5 15.5q21 0 36.5 -15.5t15.5 -37.5v-389q0 -22 -15.5 -37.5t-37.5 -15.5q-21 0 -36.5 15.5zM-39 595q-9 9 -9 22t9 22t22 9h273q13 0 22 -9t9 -22t-9 -22t-22 -9h-273q-13 0 -22 9z" />
    <glyph glyph-name="Ibreve" unicode="&#x12c;" horiz-adv-x="259" 
d="M88 11.5q-17 17.5 -17 41.5v561q0 24 17 41.5t42 17.5q24 0 41 -17.5t17 -41.5v-561q0 -24 -17 -41.5t-41 -17.5q-25 0 -42 17.5zM44.5 738.5q-40.5 17.5 -72.5 49.5q-9 9 -9 22t9 22t22 9q15 0 23 -9q47 -49 113 -49t112 48q8 10 23 10q13 0 22 -9t9 -22q0 -11 -9 -22
q-65 -67 -157 -67q-45 0 -85.5 17.5z" />
    <glyph glyph-name="ibreve" unicode="&#x12d;" horiz-adv-x="241" 
d="M83.5 9.5q-15.5 15.5 -15.5 37.5v389q0 22 15.5 37.5t37.5 15.5q21 0 36.5 -15.5t15.5 -37.5v-389q0 -22 -15.5 -37.5t-37.5 -15.5q-21 0 -36.5 15.5zM34.5 591.5q-40.5 17.5 -72.5 49.5q-9 9 -9 22t9 22t22 9q15 0 23 -9q47 -49 113 -49t112 48q8 10 23 10q13 0 22 -9
t9 -22q0 -11 -9 -22q-65 -67 -157 -67q-45 0 -85.5 17.5z" />
    <glyph glyph-name="Iogonek" unicode="&#x12e;" horiz-adv-x="259" 
d="M113.5 -44q-14.5 -19 -14.5 -40q0 -14 10.5 -22.5t24.5 -8.5q6 0 11 1t10 1q13 0 23 -9.5t10 -24.5q0 -12 -7.5 -20.5t-15.5 -11.5q-24 -7 -57 -7q-44 0 -75 20t-31 57q0 34 31 62t76 45q-17 6 -27.5 21t-10.5 34v561q0 24 17 41.5t42 17.5q24 0 41 -17.5t17 -41.5v-561
q0 -26 -20 -44q0 -1 -2 -3q-38 -31 -52.5 -50z" />
    <glyph glyph-name="iogonek" unicode="&#x12f;" horiz-adv-x="241" 
d="M74.5 596q-19.5 19 -19.5 46t19.5 46t45.5 19q27 0 46 -19t19 -46t-19 -46t-46 -19q-26 0 -45.5 19zM157.5 473.5q15.5 -15.5 15.5 -37.5v-389q0 -16 -8 -28.5t-22 -19.5q-33 -27 -46 -45.5t-13 -37.5q0 -14 10.5 -22.5t24.5 -8.5q6 0 11 1t10 1q13 0 23 -9.5t10 -24.5
q0 -12 -7.5 -20.5t-15.5 -11.5q-24 -7 -57 -7q-44 0 -75 20t-31 57q0 35 32.5 63.5t78.5 44.5q-13 7 -21.5 20t-8.5 28v389q0 22 15.5 37.5t37.5 15.5q21 0 36.5 -15.5z" />
    <glyph glyph-name="Idotaccent" unicode="&#x130;" horiz-adv-x="259" 
d="M88 11.5q-17 17.5 -17 41.5v561q0 24 17 41.5t42 17.5q24 0 41 -17.5t17 -41.5v-561q0 -24 -17 -41.5t-41 -17.5q-25 0 -42 17.5zM88.5 830.5q17.5 17.5 41.5 17.5t41 -17.5t17 -41.5q0 -25 -17 -42t-41 -17t-41.5 17t-17.5 42q0 24 17.5 41.5z" />
    <glyph glyph-name="dotlessi" unicode="&#x131;" horiz-adv-x="241" 
d="M83.5 9.5q-15.5 15.5 -15.5 37.5v389q0 22 15.5 37.5t37.5 15.5q21 0 36.5 -15.5t15.5 -37.5v-389q0 -22 -15.5 -37.5t-37.5 -15.5q-21 0 -36.5 15.5z" />
    <glyph glyph-name="IJ" unicode="&#x132;" horiz-adv-x="740" 
d="M88 11.5q-17 17.5 -17 41.5v561q0 24 17 41.5t42 17.5q24 0 41 -17.5t17 -41.5v-561q0 -24 -17 -41.5t-41 -17.5q-25 0 -42 17.5zM277 72q0 22 15 37t37 15q15 0 28 -8q35 -24 78 -24q54 0 85.5 33t31.5 88v401q0 24 17 41.5t41 17.5q25 0 42 -17.5t17 -41.5v-403
q0 -110 -62 -166.5t-163 -56.5q-83 0 -144 41q-23 16 -23 43z" />
    <glyph glyph-name="ij" unicode="&#x133;" horiz-adv-x="482" 
d="M74.5 596q-19.5 19 -19.5 46t19.5 46t45.5 19q27 0 46 -19t19 -46t-19 -46t-46 -19q-26 0 -45.5 19zM83.5 9.5q-15.5 15.5 -15.5 37.5v389q0 22 15.5 37.5t37.5 15.5q21 0 36.5 -15.5t15.5 -37.5v-389q0 -22 -15.5 -37.5t-37.5 -15.5q-21 0 -36.5 15.5zM315.5 596
q-19.5 19 -19.5 46t19.5 46t45.5 19q27 0 46 -19t19 -46t-19 -46t-46 -19q-26 0 -45.5 19zM242 -196q-17 0 -30 13t-13 31t11.5 31.5t27.5 13.5h3q31 0 49.5 19t18.5 60v464q0 22 15.5 37.5t37.5 15.5q21 0 36.5 -15.5t15.5 -37.5v-464q0 -79 -41 -123.5t-119 -44.5h-12z
" />
    <glyph glyph-name="Jcircumflex" unicode="&#x134;" horiz-adv-x="481" 
d="M18 72q0 22 15 37t37 15q15 0 28 -8q35 -24 78 -24q54 0 85.5 33t31.5 88v401q0 24 17 41.5t41 17.5q25 0 42 -17.5t17 -41.5v-403q0 -110 -62 -166.5t-163 -56.5q-83 0 -144 41q-23 16 -23 43zM355 836l-72 -92q-7 -10 -21 -10q-12 0 -20.5 8t-8.5 21q0 9 4 14l57 88
q7 11 20 18t27 7h28q14 0 27 -7t20 -18l57 -88q4 -5 4 -14q0 -13 -8.5 -21t-20.5 -8q-14 0 -21 10z" />
    <glyph glyph-name="jcircumflex" unicode="&#x135;" horiz-adv-x="241" 
d="M1 -196q-17 0 -30 13t-13 31t11.5 31.5t27.5 13.5h3q31 0 49.5 19t18.5 60v464q0 22 15.5 37.5t37.5 15.5q21 0 36.5 -15.5t15.5 -37.5v-464q0 -79 -41 -123.5t-119 -44.5h-12zM121 672l-72 -92q-7 -10 -21 -10q-12 0 -20.5 8t-8.5 21q0 9 4 14l57 88q7 11 20 18t27 7h28
q14 0 27 -7t20 -18l57 -88q4 -5 4 -14q0 -13 -8.5 -21t-20.5 -8q-14 0 -21 10z" />
    <glyph glyph-name="uni0136" unicode="&#x136;" horiz-adv-x="621" 
d="M586 50q0 -23 -15.5 -39.5t-38.5 -16.5q-25 0 -41 17l-244 267l-59 -63v-162q0 -24 -17 -41.5t-42 -17.5q-24 0 -41 17.5t-17 41.5v561q0 24 17 41.5t41 17.5q25 0 42 -17.5t17 -41.5v-267l281 308q17 18 41 18q22 0 38.5 -16t16.5 -38t-15 -37l-224 -235l245 -260
q15 -17 15 -37zM276.5 -272q-7.5 7 -7.5 17q0 6 4 11.5t9 10.5q14 14 25 31.5t14 33.5q-4 -2 -14 -2q-20 0 -34 14.5t-14 36.5q0 23 16 39.5t39 16.5q26 0 44.5 -20t18.5 -55q0 -38 -18.5 -73.5t-48.5 -61.5q-8 -6 -16 -6q-10 0 -17.5 7z" />
    <glyph glyph-name="uni0137" unicode="&#x137;" horiz-adv-x="526" 
d="M490 47q0 -23 -14.5 -38t-36.5 -15q-26 0 -40 17l-157 187l-69 -65v-86q0 -22 -15.5 -37.5t-37.5 -15.5q-21 0 -36.5 15.5t-15.5 37.5v573q0 22 15.5 37.5t37.5 15.5q21 0 36.5 -15.5t15.5 -37.5v-371l226 227q13 13 34 13q19 0 33 -14.5t14 -34.5q0 -19 -14 -33
l-147 -146l159 -180q12 -13 12 -34zM227.5 -272q-7.5 7 -7.5 17q0 6 4 11.5t9 10.5q14 14 25 31.5t14 33.5q-4 -2 -14 -2q-20 0 -34 14.5t-14 36.5q0 23 16 39.5t39 16.5q26 0 44.5 -20t18.5 -55q0 -38 -18.5 -73.5t-48.5 -61.5q-8 -6 -16 -6q-10 0 -17.5 7z" />
    <glyph glyph-name="kgreenlandic" unicode="&#x138;" horiz-adv-x="526" 
d="M490 47q0 -23 -14.5 -38t-36.5 -15q-26 0 -40 17l-157 187l-69 -65v-86q0 -22 -15.5 -37.5t-37.5 -15.5q-21 0 -36.5 15.5t-15.5 37.5v389q0 22 15.5 37.5t37.5 15.5q21 0 36.5 -15.5t15.5 -37.5v-187l226 227q13 13 34 13q19 0 33 -14.5t14 -34.5q0 -19 -14 -33
l-147 -146l159 -180q12 -13 12 -34z" />
    <glyph glyph-name="Lacute" unicode="&#x139;" horiz-adv-x="517" 
d="M87 16q-16 16 -16 46v552q0 24 17 41.5t42 17.5q24 0 41 -17.5t17 -41.5v-511h248q21 0 36.5 -15t15.5 -36q0 -22 -15.5 -37t-36.5 -15h-303q-30 0 -46 16zM137 717q-11 0 -19 8t-8 19q0 9 8 19l97 100q10 10 24 10q13 0 22.5 -9.5t9.5 -23.5q0 -15 -11 -24l-105 -92
q-7 -7 -18 -7z" />
    <glyph glyph-name="lacute" unicode="&#x13a;" horiz-adv-x="241" 
d="M83.5 9.5q-15.5 15.5 -15.5 37.5v573q0 22 15.5 37.5t37.5 15.5q21 0 36.5 -15.5t15.5 -37.5v-573q0 -22 -15.5 -37.5t-36.5 -15.5q-22 0 -37.5 15.5zM127 717q-11 0 -19 8t-8 19q0 9 8 19l97 100q10 10 24 10q13 0 22.5 -9.5t9.5 -23.5q0 -15 -11 -24l-105 -92
q-7 -7 -18 -7z" />
    <glyph glyph-name="uni013B" unicode="&#x13b;" horiz-adv-x="517" 
d="M87 16q-16 16 -16 46v552q0 24 17 41.5t42 17.5q24 0 41 -17.5t17 -41.5v-511h248q21 0 36.5 -15t15.5 -36q0 -22 -15.5 -37t-36.5 -15h-303q-30 0 -46 16zM239.5 -272q-7.5 7 -7.5 17q0 6 4 11.5t9 10.5q14 14 25 31.5t14 33.5q-4 -2 -14 -2q-20 0 -34 14.5t-14 36.5
q0 23 16 39.5t39 16.5q26 0 44.5 -20t18.5 -55q0 -38 -18.5 -73.5t-48.5 -61.5q-8 -6 -16 -6q-10 0 -17.5 7z" />
    <glyph glyph-name="uni013C" unicode="&#x13c;" horiz-adv-x="241" 
d="M83.5 9.5q-15.5 15.5 -15.5 37.5v573q0 22 15.5 37.5t37.5 15.5q21 0 36.5 -15.5t15.5 -37.5v-573q0 -22 -15.5 -37.5t-36.5 -15.5q-22 0 -37.5 15.5zM82.5 -272q-7.5 7 -7.5 17q0 6 4 11.5t9 10.5q14 14 25 31.5t14 33.5q-4 -2 -14 -2q-20 0 -34 14.5t-14 36.5
q0 23 16 39.5t39 16.5q26 0 44.5 -20t18.5 -55q0 -38 -18.5 -73.5t-48.5 -61.5q-8 -6 -16 -6q-10 0 -17.5 7z" />
    <glyph glyph-name="Lcaron" unicode="&#x13d;" horiz-adv-x="517" 
d="M87 16q-16 16 -16 46v552q0 24 17 41.5t42 17.5q24 0 41 -17.5t17 -41.5v-511h248q21 0 36.5 -15t15.5 -36q0 -22 -15.5 -37t-36.5 -15h-303q-30 0 -46 16zM291.5 471q-7.5 7 -7.5 17q0 6 4 11.5t9 10.5q14 14 25 31.5t14 33.5q-4 -2 -14 -2q-20 0 -34 14.5t-14 36.5
q0 23 16 39.5t39 16.5q26 0 44.5 -20t18.5 -55q0 -38 -18.5 -73.5t-48.5 -61.5q-8 -6 -16 -6q-10 0 -17.5 7z" />
    <glyph glyph-name="lcaron" unicode="&#x13e;" horiz-adv-x="327" 
d="M83.5 9.5q-15.5 15.5 -15.5 37.5v573q0 22 15.5 37.5t37.5 15.5q21 0 36.5 -15.5t15.5 -37.5v-573q0 -22 -15.5 -37.5t-36.5 -15.5q-22 0 -37.5 15.5zM234.5 470q-7.5 7 -7.5 17q0 6 4 11.5t9 10.5q14 14 25 31.5t14 33.5q-4 -2 -14 -2q-20 0 -34 14.5t-14 36.5
q0 23 16 39.5t39 16.5q26 0 44.5 -20t18.5 -55q0 -38 -18.5 -73.5t-48.5 -61.5q-8 -6 -16 -6q-10 0 -17.5 7z" />
    <glyph glyph-name="Ldot" unicode="&#x13f;" horiz-adv-x="517" 
d="M87 16q-16 16 -16 46v552q0 24 17 41.5t42 17.5q24 0 41 -17.5t17 -41.5v-511h248q21 0 36.5 -15t15.5 -36q0 -22 -15.5 -37t-36.5 -15h-303q-30 0 -46 16zM336 292.5q-21 20.5 -21 48.5q0 29 21 49.5t49 20.5q29 0 49.5 -20.5t20.5 -49.5q0 -28 -21 -48.5t-49 -20.5
t-49 20.5z" />
    <glyph glyph-name="ldot" unicode="&#x140;" horiz-adv-x="351" 
d="M83.5 9.5q-15.5 15.5 -15.5 37.5v573q0 22 15.5 37.5t37.5 15.5q21 0 36.5 -15.5t15.5 -37.5v-573q0 -22 -15.5 -37.5t-36.5 -15.5q-22 0 -37.5 15.5zM246 195.5q-21 20.5 -21 48.5q0 29 21 49.5t49 20.5q29 0 49.5 -20.5t20.5 -49.5q0 -28 -21 -48.5t-49 -20.5t-49 20.5
z" />
    <glyph glyph-name="Lslash" unicode="&#x141;" horiz-adv-x="533" 
d="M488.5 88q15.5 -15 15.5 -36q0 -22 -15.5 -37t-36.5 -15h-303q-30 0 -46 16t-16 46v187l-21 -12q-9 -6 -21 -6q-17 0 -29.5 12.5t-12.5 29.5q0 12 6 22t15 15l63 36v268q0 24 17 41.5t42 17.5q24 0 41 -17.5t17 -41.5v-200l28 16q9 6 21 6q17 0 29.5 -12.5t12.5 -29.5
q0 -12 -6 -22t-15 -15l-70 -40v-214h248q21 0 36.5 -15z" />
    <glyph glyph-name="lslash" unicode="&#x142;" horiz-adv-x="299" 
d="M285 422q10 -10 10 -24q0 -9 -4.5 -16.5t-12.5 -12.5l-76 -44v-278q0 -22 -15.5 -37.5t-36.5 -15.5q-22 0 -37.5 15.5t-15.5 37.5v218l-43 -25q-7 -4 -17 -4q-14 0 -24 10t-10 24q0 9 4.5 16.5t12.5 12.5l77 44v277q0 22 15.5 37.5t37.5 15.5q21 0 36.5 -15.5t15.5 -37.5
v-216l42 24q7 4 17 4q14 0 24 -10z" />
    <glyph glyph-name="Nacute" unicode="&#x143;" horiz-adv-x="720" 
d="M544 2q-15 8 -25 22l-331 462v-433q0 -24 -17 -41.5t-41 -17.5q-25 0 -42 17.5t-17 41.5v543q0 32 22.5 54.5t54.5 22.5q19 0 35 -8.5t27 -23.5l322 -447v420q0 24 17 41.5t41 17.5q25 0 42 -17.5t17 -41.5v-548q0 -29 -21 -50.5t-51 -21.5q-18 0 -33 8zM367 717
q-11 0 -19 8t-8 19q0 9 8 19l97 100q10 10 24 10q13 0 22.5 -9.5t9.5 -23.5q0 -15 -11 -24l-105 -92q-7 -7 -18 -7z" />
    <glyph glyph-name="nacute" unicode="&#x144;" 
d="M459.5 455q39.5 -40 39.5 -115v-293q0 -22 -15.5 -37.5t-37.5 -15.5q-21 0 -36.5 15.5t-15.5 37.5v255q0 54 -25 77t-72 23q-38 0 -71 -19t-53 -46v-290q0 -22 -15.5 -37.5t-36.5 -15.5q-22 0 -37.5 15.5t-15.5 37.5v389q0 22 15.5 37.5t36.5 15.5q22 0 37.5 -15.5
t15.5 -37.5v-19q27 32 72 55t98 23q77 0 116.5 -40zM291 570q-11 0 -19 8t-8 19q0 9 8 19l97 100q10 10 24 10q13 0 22.5 -9.5t9.5 -23.5q0 -15 -11 -24l-105 -92q-7 -7 -18 -7z" />
    <glyph glyph-name="uni0145" unicode="&#x145;" horiz-adv-x="720" 
d="M544 2q-15 8 -25 22l-331 462v-433q0 -24 -17 -41.5t-41 -17.5q-25 0 -42 17.5t-17 41.5v543q0 32 22.5 54.5t54.5 22.5q19 0 35 -8.5t27 -23.5l322 -447v420q0 24 17 41.5t41 17.5q25 0 42 -17.5t17 -41.5v-548q0 -29 -21 -50.5t-51 -21.5q-18 0 -33 8zM322.5 -272
q-7.5 7 -7.5 17q0 6 4 11.5t9 10.5q14 14 25 31.5t14 33.5q-4 -2 -14 -2q-20 0 -34 14.5t-14 36.5q0 23 16 39.5t39 16.5q26 0 44.5 -20t18.5 -55q0 -38 -18.5 -73.5t-48.5 -61.5q-8 -6 -16 -6q-10 0 -17.5 7z" />
    <glyph glyph-name="uni0146" unicode="&#x146;" 
d="M459.5 455q39.5 -40 39.5 -115v-293q0 -22 -15.5 -37.5t-37.5 -15.5q-21 0 -36.5 15.5t-15.5 37.5v255q0 54 -25 77t-72 23q-38 0 -71 -19t-53 -46v-290q0 -22 -15.5 -37.5t-36.5 -15.5q-22 0 -37.5 15.5t-15.5 37.5v389q0 22 15.5 37.5t36.5 15.5q22 0 37.5 -15.5
t15.5 -37.5v-19q27 32 72 55t98 23q77 0 116.5 -40zM246.5 -272q-7.5 7 -7.5 17q0 6 4 11.5t9 10.5q14 14 25 31.5t14 33.5q-4 -2 -14 -2q-20 0 -34 14.5t-14 36.5q0 23 16 39.5t39 16.5q26 0 44.5 -20t18.5 -55q0 -38 -18.5 -73.5t-48.5 -61.5q-8 -6 -16 -6q-10 0 -17.5 7z
" />
    <glyph glyph-name="Ncaron" unicode="&#x147;" horiz-adv-x="720" 
d="M544 2q-15 8 -25 22l-331 462v-433q0 -24 -17 -41.5t-41 -17.5q-25 0 -42 17.5t-17 41.5v543q0 32 22.5 54.5t54.5 22.5q19 0 35 -8.5t27 -23.5l322 -447v420q0 24 17 41.5t41 17.5q25 0 42 -17.5t17 -41.5v-548q0 -29 -21 -50.5t-51 -21.5q-18 0 -33 8zM471.5 865
q8.5 -8 8.5 -21q0 -9 -4 -14l-57 -88q-7 -11 -20 -18t-27 -7h-28q-14 0 -27 7t-20 18l-57 88q-4 5 -4 14q0 13 8.5 21t20.5 8q14 0 21 -10l72 -92l72 92q7 10 21 10q12 0 20.5 -8z" />
    <glyph glyph-name="ncaron" unicode="&#x148;" 
d="M459.5 455q39.5 -40 39.5 -115v-293q0 -22 -15.5 -37.5t-37.5 -15.5q-21 0 -36.5 15.5t-15.5 37.5v255q0 54 -25 77t-72 23q-38 0 -71 -19t-53 -46v-290q0 -22 -15.5 -37.5t-36.5 -15.5q-22 0 -37.5 15.5t-15.5 37.5v389q0 22 15.5 37.5t36.5 15.5q22 0 37.5 -15.5
t15.5 -37.5v-19q27 32 72 55t98 23q77 0 116.5 -40zM395.5 718q8.5 -8 8.5 -21q0 -9 -4 -14l-57 -88q-7 -11 -20 -18t-27 -7h-28q-14 0 -27 7t-20 18l-57 88q-4 5 -4 14q0 13 8.5 21t20.5 8q14 0 21 -10l72 -92l72 92q7 10 21 10q12 0 20.5 -8z" />
    <glyph glyph-name="napostrophe" unicode="&#x149;" 
d="M459.5 455q39.5 -40 39.5 -115v-293q0 -22 -15.5 -37.5t-37.5 -15.5q-21 0 -36.5 15.5t-15.5 37.5v255q0 54 -25 77t-72 23q-38 0 -71 -19t-53 -46v-290q0 -22 -15.5 -37.5t-36.5 -15.5q-22 0 -37.5 15.5t-15.5 37.5v389q0 22 15.5 37.5t36.5 15.5q22 0 37.5 -15.5
t15.5 -37.5v-19q27 32 72 55t98 23q77 0 116.5 -40zM68.5 546q-7.5 7 -7.5 17q0 6 4 11.5t9 10.5q14 14 25 31.5t14 33.5q-4 -2 -14 -2q-20 0 -34 14.5t-14 36.5q0 23 16 39.5t39 16.5q26 0 44.5 -20t18.5 -55q0 -38 -18.5 -73.5t-48.5 -61.5q-8 -6 -16 -6q-10 0 -17.5 7z
" />
    <glyph glyph-name="Eng" unicode="&#x14a;" horiz-adv-x="720" 
d="M632 655.5q17 -17.5 17 -41.5v-588q0 -110 -61.5 -166t-163.5 -56q-83 0 -145 41q-23 16 -23 43q0 22 15.5 37t36.5 15q16 0 29 -8q35 -24 78 -24q50 0 79 29t32 79l-338 470v-433q0 -24 -17 -41.5t-41 -17.5q-25 0 -42 17.5t-17 41.5v543q0 32 22.5 54.5t54.5 22.5
q19 0 35 -8.5t27 -23.5l322 -447v420q0 24 17 41.5t41 17.5q25 0 42 -17.5z" />
    <glyph glyph-name="eng" unicode="&#x14b;" 
d="M459.5 455q39.5 -40 39.5 -115v-368q0 -79 -41 -123.5t-119 -44.5h-12q-17 0 -30 13t-13 31t11.5 31.5t27.5 13.5h3q31 0 49.5 19t18.5 60v330q0 54 -25 77t-72 23q-38 0 -71 -19t-53 -46v-290q0 -22 -15.5 -37.5t-36.5 -15.5q-22 0 -37.5 15.5t-15.5 37.5v389
q0 22 15.5 37.5t36.5 15.5q22 0 37.5 -15.5t15.5 -37.5v-19q27 32 72 55t98 23q77 0 116.5 -40z" />
    <glyph glyph-name="Omacron" unicode="&#x14c;" horiz-adv-x="765" 
d="M84.5 510q43.5 79 121 123.5t176.5 44.5t176.5 -44.5t121 -123.5t43.5 -177t-43.5 -177t-121 -123.5t-176.5 -44.5t-176.5 44.5t-121 123.5t-43.5 177t43.5 177zM575.5 457q-27.5 55 -77.5 86t-116 31t-116 -31t-77.5 -86t-27.5 -124q0 -68 27.5 -123t77.5 -86.5
t116 -31.5t116 31.5t77.5 86.5t27.5 123q0 69 -27.5 124zM222 742q-9 9 -9 22t9 22t22 9h273q13 0 22 -9t9 -22t-9 -22t-22 -9h-273q-13 0 -22 9z" />
    <glyph glyph-name="omacron" unicode="&#x14d;" horiz-adv-x="573" 
d="M155.5 22q-56.5 34 -87 92t-30.5 128q0 69 30.5 127t87 92t130.5 34q75 0 131.5 -34t87 -91.5t30.5 -127.5t-30.5 -128t-87 -92t-131.5 -34q-74 0 -130.5 34zM388.5 127.5q37.5 46.5 37.5 114.5q0 67 -37.5 113.5t-102.5 46.5q-64 0 -101.5 -46.5t-37.5 -113.5
q0 -68 37.5 -114.5t101.5 -46.5q65 0 102.5 46.5zM127 595q-9 9 -9 22t9 22t22 9h273q13 0 22 -9t9 -22t-9 -22t-22 -9h-273q-13 0 -22 9z" />
    <glyph glyph-name="Obreve" unicode="&#x14e;" horiz-adv-x="765" 
d="M84.5 510q43.5 79 121 123.5t176.5 44.5t176.5 -44.5t121 -123.5t43.5 -177t-43.5 -177t-121 -123.5t-176.5 -44.5t-176.5 44.5t-121 123.5t-43.5 177t43.5 177zM575.5 457q-27.5 55 -77.5 86t-116 31t-116 -31t-77.5 -86t-27.5 -124q0 -68 27.5 -123t77.5 -86.5
t116 -31.5t116 31.5t77.5 86.5t27.5 123q0 69 -27.5 124zM295.5 738.5q-40.5 17.5 -72.5 49.5q-9 9 -9 22t9 22t22 9q15 0 23 -9q47 -49 113 -49t112 48q8 10 23 10q13 0 22 -9t9 -22q0 -11 -9 -22q-65 -67 -157 -67q-45 0 -85.5 17.5z" />
    <glyph glyph-name="obreve" unicode="&#x14f;" horiz-adv-x="573" 
d="M155.5 22q-56.5 34 -87 92t-30.5 128q0 69 30.5 127t87 92t130.5 34q75 0 131.5 -34t87 -91.5t30.5 -127.5t-30.5 -128t-87 -92t-131.5 -34q-74 0 -130.5 34zM388.5 127.5q37.5 46.5 37.5 114.5q0 67 -37.5 113.5t-102.5 46.5q-64 0 -101.5 -46.5t-37.5 -113.5
q0 -68 37.5 -114.5t101.5 -46.5q65 0 102.5 46.5zM200.5 591.5q-40.5 17.5 -72.5 49.5q-9 9 -9 22t9 22t22 9q15 0 23 -9q47 -49 113 -49t112 48q8 10 23 10q13 0 22 -9t9 -22q0 -11 -9 -22q-65 -67 -157 -67q-45 0 -85.5 17.5z" />
    <glyph glyph-name="Ohungarumlaut" unicode="&#x150;" horiz-adv-x="765" 
d="M84.5 510q43.5 79 121 123.5t176.5 44.5t176.5 -44.5t121 -123.5t43.5 -177t-43.5 -177t-121 -123.5t-176.5 -44.5t-176.5 44.5t-121 123.5t-43.5 177t43.5 177zM575.5 457q-27.5 55 -77.5 86t-116 31t-116 -31t-77.5 -86t-27.5 -124q0 -68 27.5 -123t77.5 -86.5
t116 -31.5t116 31.5t77.5 86.5t27.5 123q0 69 -27.5 124zM298.5 724q-8.5 8 -8.5 19q0 9 4 14l64 101q4 7 12 11.5t16 4.5q13 0 23 -10.5t10 -24.5q0 -12 -7 -20l-74 -93q-7 -10 -20 -10q-11 0 -19.5 8zM444.5 724q-8.5 8 -8.5 19q0 9 4 14l64 101q4 7 12 11.5t16 4.5
q13 0 23 -10.5t10 -24.5q0 -12 -7 -20l-74 -93q-7 -10 -20 -10q-11 0 -19.5 8z" />
    <glyph glyph-name="ohungarumlaut" unicode="&#x151;" horiz-adv-x="573" 
d="M155.5 22q-56.5 34 -87 92t-30.5 128q0 69 30.5 127t87 92t130.5 34q75 0 131.5 -34t87 -91.5t30.5 -127.5t-30.5 -128t-87 -92t-131.5 -34q-74 0 -130.5 34zM388.5 127.5q37.5 46.5 37.5 114.5q0 67 -37.5 113.5t-102.5 46.5q-64 0 -101.5 -46.5t-37.5 -113.5
q0 -68 37.5 -114.5t101.5 -46.5q65 0 102.5 46.5zM203.5 577q-8.5 8 -8.5 19q0 9 4 14l64 101q4 7 12 11.5t16 4.5q13 0 23 -10.5t10 -24.5q0 -12 -7 -20l-74 -93q-7 -10 -20 -10q-11 0 -19.5 8zM349.5 577q-8.5 8 -8.5 19q0 9 4 14l64 101q4 7 12 11.5t16 4.5
q13 0 23 -10.5t10 -24.5q0 -12 -7 -20l-74 -93q-7 -10 -20 -10q-11 0 -19.5 8z" />
    <glyph glyph-name="OE" unicode="&#x152;" horiz-adv-x="1093" 
d="M1035.5 88q15.5 -15 15.5 -36q0 -22 -15.5 -37t-36.5 -15h-349q-30 0 -46 16t-16 46v34q-34 -52 -93.5 -80t-123.5 -28q-96 0 -171 44.5t-117 123t-42 177.5t42 177.5t117 122.5t171 44q64 0 123.5 -28t93.5 -79v35q0 30 16 46t46 16h349q21 0 36.5 -15t15.5 -37
q0 -21 -15.5 -36t-36.5 -15h-294v-173h287q21 0 36.5 -15t15.5 -36q0 -22 -15.5 -37t-36.5 -15h-287v-185h294q21 0 36.5 -15zM508.5 127q53.5 35 79.5 100v212q-26 65 -79 99.5t-123 34.5q-68 0 -119 -31t-78.5 -85.5t-27.5 -123.5t27.5 -124t78.5 -86t119 -31
q69 0 122.5 35z" />
    <glyph glyph-name="oe" unicode="&#x153;" horiz-adv-x="944" 
d="M582.5 112q40.5 -38 106.5 -38q58 0 111 32q9 6 22 6q18 0 30.5 -12t12.5 -30q0 -11 -5.5 -20t-14.5 -15q-71 -47 -166 -47q-129 0 -200 120q-69 -120 -193 -120q-74 0 -130.5 34t-87 92t-30.5 128q0 69 30.5 127t87 92t130.5 34q123 0 194 -121q27 49 73.5 85t117.5 36
t125 -34t83 -93.5t29 -135.5q0 -12 -16 -18.5t-46 -6.5h-310q6 -57 46.5 -95zM769.5 370q-34.5 39 -99.5 39q-62 0 -97 -39t-38 -89h272q-3 50 -37.5 89zM185 356.5q-38 -45.5 -38 -114.5q0 -70 38 -116t101 -46q64 0 102 46t38 116q0 69 -38 114.5t-102 45.5
q-63 0 -101 -45.5z" />
    <glyph glyph-name="Racute" unicode="&#x154;" horiz-adv-x="628" 
d="M585 47q0 -19 -16 -36t-39 -17q-14 0 -27.5 7t-21.5 18l-157 230h-136v-196q0 -24 -17 -41.5t-41 -17.5q-25 0 -42 17.5t-17 41.5v552q0 30 16 46t46 16h231q65 0 114.5 -26.5t76.5 -74t27 -108.5q0 -77 -39.5 -126.5t-98.5 -65.5l130 -182q11 -16 11 -37zM188 352h160
q50 0 82 29t32 77t-32 77t-82 29h-160v-212zM321 717q-11 0 -19 8t-8 19q0 9 8 19l97 100q10 10 24 10q13 0 22.5 -9.5t9.5 -23.5q0 -15 -11 -24l-105 -92q-7 -7 -18 -7z" />
    <glyph glyph-name="racute" unicode="&#x155;" horiz-adv-x="347" 
d="M326 477q11 -14 11 -35q0 -19 -14 -32.5t-40 -17.5q-30 -4 -62.5 -21.5t-47.5 -41.5v-282q0 -22 -15.5 -37.5t-36.5 -15.5q-22 0 -37.5 15.5t-15.5 37.5v389q0 22 15.5 37.5t36.5 15.5q22 0 37.5 -15.5t15.5 -37.5v-24q20 26 45 46t48 27q18 6 28 6q21 0 32 -14zM202 570
q-11 0 -19 8t-8 19q0 9 8 19l97 100q10 10 24 10q13 0 22.5 -9.5t9.5 -23.5q0 -15 -11 -24l-105 -92q-7 -7 -18 -7z" />
    <glyph glyph-name="uni0156" unicode="&#x156;" horiz-adv-x="628" 
d="M585 47q0 -19 -16 -36t-39 -17q-14 0 -27.5 7t-21.5 18l-157 230h-136v-196q0 -24 -17 -41.5t-41 -17.5q-25 0 -42 17.5t-17 41.5v552q0 30 16 46t46 16h231q65 0 114.5 -26.5t76.5 -74t27 -108.5q0 -77 -39.5 -126.5t-98.5 -65.5l130 -182q11 -16 11 -37zM188 352h160
q50 0 82 29t32 77t-32 77t-82 29h-160v-212zM276.5 -272q-7.5 7 -7.5 17q0 6 4 11.5t9 10.5q14 14 25 31.5t14 33.5q-4 -2 -14 -2q-20 0 -34 14.5t-14 36.5q0 23 16 39.5t39 16.5q26 0 44.5 -20t18.5 -55q0 -38 -18.5 -73.5t-48.5 -61.5q-8 -6 -16 -6q-10 0 -17.5 7z" />
    <glyph glyph-name="uni0157" unicode="&#x157;" horiz-adv-x="347" 
d="M326 477q11 -14 11 -35q0 -19 -14 -32.5t-40 -17.5q-30 -4 -62.5 -21.5t-47.5 -41.5v-282q0 -22 -15.5 -37.5t-36.5 -15.5q-22 0 -37.5 15.5t-15.5 37.5v389q0 22 15.5 37.5t36.5 15.5q22 0 37.5 -15.5t15.5 -37.5v-24q20 26 45 46t48 27q18 6 28 6q21 0 32 -14z
M85.5 -272q-7.5 7 -7.5 17q0 6 4 11.5t9 10.5q14 14 25 31.5t14 33.5q-4 -2 -14 -2q-20 0 -34 14.5t-14 36.5q0 23 16 39.5t39 16.5q26 0 44.5 -20t18.5 -55q0 -38 -18.5 -73.5t-48.5 -61.5q-8 -6 -16 -6q-10 0 -17.5 7z" />
    <glyph glyph-name="Rcaron" unicode="&#x158;" horiz-adv-x="628" 
d="M585 47q0 -19 -16 -36t-39 -17q-14 0 -27.5 7t-21.5 18l-157 230h-136v-196q0 -24 -17 -41.5t-41 -17.5q-25 0 -42 17.5t-17 41.5v552q0 30 16 46t46 16h231q65 0 114.5 -26.5t76.5 -74t27 -108.5q0 -77 -39.5 -126.5t-98.5 -65.5l130 -182q11 -16 11 -37zM188 352h160
q50 0 82 29t32 77t-32 77t-82 29h-160v-212zM425.5 865q8.5 -8 8.5 -21q0 -9 -4 -14l-57 -88q-7 -11 -20 -18t-27 -7h-28q-14 0 -27 7t-20 18l-57 88q-4 5 -4 14q0 13 8.5 21t20.5 8q14 0 21 -10l72 -92l72 92q7 10 21 10q12 0 20.5 -8z" />
    <glyph glyph-name="rcaron" unicode="&#x159;" horiz-adv-x="347" 
d="M326 477q11 -14 11 -35q0 -19 -14 -32.5t-40 -17.5q-30 -4 -62.5 -21.5t-47.5 -41.5v-282q0 -22 -15.5 -37.5t-36.5 -15.5q-22 0 -37.5 15.5t-15.5 37.5v389q0 22 15.5 37.5t36.5 15.5q22 0 37.5 -15.5t15.5 -37.5v-24q20 26 45 46t48 27q18 6 28 6q21 0 32 -14z
M306.5 718q8.5 -8 8.5 -21q0 -9 -4 -14l-57 -88q-7 -11 -20 -18t-27 -7h-28q-14 0 -27 7t-20 18l-57 88q-4 5 -4 14q0 13 8.5 21t20.5 8q14 0 21 -10l72 -92l72 92q7 10 21 10q12 0 20.5 -8z" />
    <glyph glyph-name="Sacute" unicode="&#x15a;" horiz-adv-x="594" 
d="M42 105q0 23 16 39.5t39 16.5q20 0 34 -11q78 -58 173 -58q67 0 100.5 27t33.5 64q0 28 -19.5 46t-49.5 28.5t-83 24.5q-75 18 -122 37t-81 58.5t-34 104.5q0 55 31 99.5t88.5 70t133.5 25.5q58 0 107 -15t99 -46q11 -7 18 -19t7 -26q0 -22 -16 -38.5t-39 -16.5
q-18 0 -31 10q-35 23 -75.5 35t-79.5 12q-58 0 -90.5 -22.5t-32.5 -60.5q0 -24 19 -40t47.5 -26t80.5 -23q75 -19 123.5 -39t83 -60.5t34.5 -107.5q0 -58 -28 -104.5t-86 -74t-144 -27.5q-139 0 -235 73q-22 17 -22 44zM299 717q-11 0 -19 8t-8 19q0 9 8 19l97 100
q10 10 24 10q13 0 22.5 -9.5t9.5 -23.5q0 -15 -11 -24l-105 -92q-7 -7 -18 -7z" />
    <glyph glyph-name="sacute" unicode="&#x15b;" horiz-adv-x="472" 
d="M40.5 55q-5.5 10 -5.5 21q0 19 13 32t32 13q13 0 25 -7q30 -20 64.5 -31.5t68.5 -11.5q46 0 70.5 15.5t24.5 43.5q0 29 -28 43.5t-82 26.5q-57 12 -93.5 25.5t-62.5 43t-26 79.5q0 40 22.5 73.5t65.5 53.5t102 20q91 0 161 -47q19 -14 19 -35q0 -17 -12.5 -29.5
t-29.5 -12.5q-13 0 -23 7q-51 33 -114 33q-42 0 -66 -14.5t-24 -39.5t26 -38t79 -25q57 -12 95 -26.5t65 -45.5t27 -84q0 -66 -53 -108t-148 -42q-103 0 -178 51q-9 6 -14.5 16zM238 570q-11 0 -19 8t-8 19q0 9 8 19l97 100q10 10 24 10q13 0 22.5 -9.5t9.5 -23.5
q0 -15 -11 -24l-105 -92q-7 -7 -18 -7z" />
    <glyph glyph-name="Scircumflex" unicode="&#x15c;" horiz-adv-x="594" 
d="M42 105q0 23 16 39.5t39 16.5q20 0 34 -11q78 -58 173 -58q67 0 100.5 27t33.5 64q0 28 -19.5 46t-49.5 28.5t-83 24.5q-75 18 -122 37t-81 58.5t-34 104.5q0 55 31 99.5t88.5 70t133.5 25.5q58 0 107 -15t99 -46q11 -7 18 -19t7 -26q0 -22 -16 -38.5t-39 -16.5
q-18 0 -31 10q-35 23 -75.5 35t-79.5 12q-58 0 -90.5 -22.5t-32.5 -60.5q0 -24 19 -40t47.5 -26t80.5 -23q75 -19 123.5 -39t83 -60.5t34.5 -107.5q0 -58 -28 -104.5t-86 -74t-144 -27.5q-139 0 -235 73q-22 17 -22 44zM293 819l-72 -92q-7 -10 -21 -10q-12 0 -20.5 8
t-8.5 21q0 9 4 14l57 88q7 11 20 18t27 7h28q14 0 27 -7t20 -18l57 -88q4 -5 4 -14q0 -13 -8.5 -21t-20.5 -8q-14 0 -21 10z" />
    <glyph glyph-name="scircumflex" unicode="&#x15d;" horiz-adv-x="472" 
d="M40.5 55q-5.5 10 -5.5 21q0 19 13 32t32 13q13 0 25 -7q30 -20 64.5 -31.5t68.5 -11.5q46 0 70.5 15.5t24.5 43.5q0 29 -28 43.5t-82 26.5q-57 12 -93.5 25.5t-62.5 43t-26 79.5q0 40 22.5 73.5t65.5 53.5t102 20q91 0 161 -47q19 -14 19 -35q0 -17 -12.5 -29.5
t-29.5 -12.5q-13 0 -23 7q-51 33 -114 33q-42 0 -66 -14.5t-24 -39.5t26 -38t79 -25q57 -12 95 -26.5t65 -45.5t27 -84q0 -66 -53 -108t-148 -42q-103 0 -178 51q-9 6 -14.5 16zM232 672l-72 -92q-7 -10 -21 -10q-12 0 -20.5 8t-8.5 21q0 9 4 14l57 88q7 11 20 18t27 7h28
q14 0 27 -7t20 -18l57 -88q4 -5 4 -14q0 -13 -8.5 -21t-20.5 -8q-14 0 -21 10z" />
    <glyph glyph-name="uni015E" unicode="&#x15e;" horiz-adv-x="594" 
d="M496.5 50.5q-60.5 -57.5 -178.5 -62.5l-17 -41q16 11 36 11q29 0 48 -19.5t19 -49.5q0 -37 -31 -60t-77 -23q-52 0 -92 22q-14 7 -14 22q0 11 7.5 18.5t17.5 7.5q6 0 13 -4q32 -18 65 -18q23 0 39.5 9.5t16.5 26.5q0 30 -33 30q-17 0 -27 -9q-8 -5 -16 -5q-12 0 -20 8
t-8 20q0 4 2 10l17 45q-118 9 -200 72q-22 17 -22 44q0 23 16 39.5t39 16.5q20 0 34 -11q78 -58 173 -58q67 0 100.5 27t33.5 64q0 28 -19.5 46t-49.5 28.5t-83 24.5q-75 18 -122 37t-81 58.5t-34 104.5q0 55 31 99.5t88.5 70t133.5 25.5q58 0 107 -15t99 -46q11 -7 18 -19
t7 -26q0 -22 -16 -38.5t-39 -16.5q-18 0 -31 10q-35 23 -75.5 35t-79.5 12q-58 0 -90.5 -22.5t-32.5 -60.5q0 -24 19 -40t47.5 -26t80.5 -23q75 -19 123.5 -39t83 -60.5t34.5 -107.5q0 -86 -60.5 -143.5z" />
    <glyph glyph-name="uni015F" unicode="&#x15f;" horiz-adv-x="472" 
d="M387.5 35q-46.5 -41 -130.5 -46l-17 -42q16 11 36 11q29 0 48 -19.5t19 -49.5q0 -37 -31 -60t-77 -23q-52 0 -92 22q-14 7 -14 22q0 11 7.5 18.5t17.5 7.5q6 0 13 -4q32 -18 65 -18q23 0 39.5 9.5t16.5 26.5q0 30 -33 30q-16 0 -27 -9q-7 -5 -16 -5q-12 0 -20 8t-8 20
q0 4 2 10l17 45q-87 8 -148 50q-9 6 -14.5 16t-5.5 21q0 19 13 32t32 13q13 0 25 -7q30 -20 64.5 -31.5t68.5 -11.5q46 0 70.5 15.5t24.5 43.5q0 29 -28 43.5t-82 26.5q-57 12 -93.5 25.5t-62.5 43t-26 79.5q0 40 22.5 73.5t65.5 53.5t102 20q91 0 161 -47q19 -14 19 -35
q0 -17 -12.5 -29.5t-29.5 -12.5q-13 0 -23 7q-51 33 -114 33q-42 0 -66 -14.5t-24 -39.5t26 -38t79 -25q57 -12 95 -26.5t65 -45.5t27 -84q0 -62 -46.5 -103z" />
    <glyph glyph-name="Scaron" unicode="&#x160;" horiz-adv-x="594" 
d="M42 105q0 23 16 39.5t39 16.5q20 0 34 -11q78 -58 173 -58q67 0 100.5 27t33.5 64q0 28 -19.5 46t-49.5 28.5t-83 24.5q-75 18 -122 37t-81 58.5t-34 104.5q0 55 31 99.5t88.5 70t133.5 25.5q58 0 107 -15t99 -46q11 -7 18 -19t7 -26q0 -22 -16 -38.5t-39 -16.5
q-18 0 -31 10q-35 23 -75.5 35t-79.5 12q-58 0 -90.5 -22.5t-32.5 -60.5q0 -24 19 -40t47.5 -26t80.5 -23q75 -19 123.5 -39t83 -60.5t34.5 -107.5q0 -58 -28 -104.5t-86 -74t-144 -27.5q-139 0 -235 73q-22 17 -22 44zM403.5 865q8.5 -8 8.5 -21q0 -9 -4 -14l-57 -88
q-7 -11 -20 -18t-27 -7h-28q-14 0 -27 7t-20 18l-57 88q-4 5 -4 14q0 13 8.5 21t20.5 8q14 0 21 -10l72 -92l72 92q7 10 21 10q12 0 20.5 -8z" />
    <glyph glyph-name="scaron" unicode="&#x161;" horiz-adv-x="472" 
d="M40.5 55q-5.5 10 -5.5 21q0 19 13 32t32 13q13 0 25 -7q30 -20 64.5 -31.5t68.5 -11.5q46 0 70.5 15.5t24.5 43.5q0 29 -28 43.5t-82 26.5q-57 12 -93.5 25.5t-62.5 43t-26 79.5q0 40 22.5 73.5t65.5 53.5t102 20q91 0 161 -47q19 -14 19 -35q0 -17 -12.5 -29.5
t-29.5 -12.5q-13 0 -23 7q-51 33 -114 33q-42 0 -66 -14.5t-24 -39.5t26 -38t79 -25q57 -12 95 -26.5t65 -45.5t27 -84q0 -66 -53 -108t-148 -42q-103 0 -178 51q-9 6 -14.5 16zM342.5 718q8.5 -8 8.5 -21q0 -9 -4 -14l-57 -88q-7 -11 -20 -18t-27 -7h-28q-14 0 -27 7
t-20 18l-57 88q-4 5 -4 14q0 13 8.5 21t20.5 8q14 0 21 -10l72 -92l72 92q7 10 21 10q12 0 20.5 -8z" />
    <glyph glyph-name="uni0162" unicode="&#x162;" horiz-adv-x="577" 
d="M247 11.5q-17 17.5 -17 41.5v511h-156q-21 0 -36.5 15t-15.5 36q0 22 15.5 37t36.5 15h429q21 0 36.5 -15t15.5 -37q0 -21 -15.5 -36t-36.5 -15h-156v-511q0 -24 -17 -41.5t-41 -17.5q-25 0 -42 17.5zM251.5 -272q-7.5 7 -7.5 17q0 6 4 11.5t9 10.5q14 14 25 31.5
t14 33.5q-4 -2 -14 -2q-20 0 -34 14.5t-14 36.5q0 23 16 39.5t39 16.5q26 0 44.5 -20t18.5 -55q0 -38 -18.5 -73.5t-48.5 -61.5q-8 -6 -16 -6q-10 0 -17.5 7z" />
    <glyph glyph-name="uni0163" unicode="&#x163;" horiz-adv-x="319" 
d="M298 71.5q12 -12.5 12 -31.5q0 -15 -7.5 -25t-20.5 -15q-29 -12 -69 -12q-61 0 -92.5 32t-31.5 92v279h-40q-19 0 -32.5 13.5t-13.5 32.5t13.5 32.5t32.5 13.5h40v85q0 22 15.5 37.5t37.5 15.5q21 0 36.5 -15.5t15.5 -37.5v-85h58q19 0 32.5 -13.5t13.5 -32.5
t-13.5 -32.5t-32.5 -13.5h-58v-253q0 -26 12 -41.5t34 -15.5q7 0 14 1.5t12 1.5q20 0 32 -12.5zM123.5 -272q-7.5 7 -7.5 17q0 6 4 11.5t9 10.5q14 14 25 31.5t14 33.5q-4 -2 -14 -2q-20 0 -34 14.5t-14 36.5q0 23 16 39.5t39 16.5q26 0 44.5 -20t18.5 -55
q0 -38 -18.5 -73.5t-48.5 -61.5q-8 -6 -16 -6q-10 0 -17.5 7z" />
    <glyph glyph-name="Tcaron" unicode="&#x164;" horiz-adv-x="577" 
d="M247 11.5q-17 17.5 -17 41.5v511h-156q-21 0 -36.5 15t-15.5 36q0 22 15.5 37t36.5 15h429q21 0 36.5 -15t15.5 -37q0 -21 -15.5 -36t-36.5 -15h-156v-511q0 -24 -17 -41.5t-41 -17.5q-25 0 -42 17.5zM400.5 865q8.5 -8 8.5 -21q0 -9 -4 -14l-57 -88q-7 -11 -20 -18
t-27 -7h-28q-14 0 -27 7t-20 18l-57 88q-4 5 -4 14q0 13 8.5 21t20.5 8q14 0 21 -10l72 -92l72 92q7 10 21 10q12 0 20.5 -8z" />
    <glyph glyph-name="tcaron" unicode="&#x165;" horiz-adv-x="351" 
d="M298 71.5q12 -12.5 12 -31.5q0 -15 -7.5 -25t-20.5 -15q-29 -12 -69 -12q-61 0 -92.5 32t-31.5 92v279h-40q-19 0 -32.5 13.5t-13.5 32.5t13.5 32.5t32.5 13.5h40v85q0 22 15.5 37.5t37.5 15.5q21 0 36.5 -15.5t15.5 -37.5v-85h58q19 0 32.5 -13.5t13.5 -32.5
t-13.5 -32.5t-32.5 -13.5h-58v-253q0 -26 12 -41.5t34 -15.5q7 0 14 1.5t12 1.5q20 0 32 -12.5zM268.5 546q-7.5 7 -7.5 17q0 6 4 11.5t9 10.5q14 14 25 31.5t14 33.5q-4 -2 -14 -2q-20 0 -34 14.5t-14 36.5q0 23 16 39.5t39 16.5q26 0 44.5 -20t18.5 -55q0 -38 -18.5 -73.5
t-48.5 -61.5q-8 -6 -16 -6q-10 0 -17.5 7z" />
    <glyph glyph-name="Tbar" unicode="&#x166;" horiz-adv-x="577" 
d="M539.5 652q15.5 -15 15.5 -37q0 -21 -15.5 -36t-36.5 -15h-156v-226h116q13 0 22 -9t9 -22t-9 -22t-22 -9h-116v-223q0 -24 -17 -41.5t-41 -17.5q-25 0 -42 17.5t-17 41.5v223h-116q-13 0 -22 9t-9 22t9 22t22 9h116v226h-156q-21 0 -36.5 15t-15.5 36q0 22 15.5 37
t36.5 15h429q21 0 36.5 -15z" />
    <glyph glyph-name="tbar" unicode="&#x167;" horiz-adv-x="319" 
d="M298 71.5q12 -12.5 12 -31.5q0 -15 -7.5 -25t-20.5 -15q-29 -12 -69 -12q-61 0 -92.5 32t-31.5 92v104h-55q-13 0 -22 9t-9 22t9 22t22 9h55v113h-40q-19 0 -32.5 13.5t-13.5 32.5t13.5 32.5t32.5 13.5h40v85q0 22 15.5 37.5t37.5 15.5q21 0 36.5 -15.5t15.5 -37.5v-85
h58q19 0 32.5 -13.5t13.5 -32.5t-13.5 -32.5t-32.5 -13.5h-58v-113h44q13 0 22 -9t9 -22t-9 -22t-22 -9h-44v-78q0 -26 12 -41.5t34 -15.5q7 0 14 1.5t12 1.5q20 0 32 -12.5z" />
    <glyph glyph-name="Utilde" unicode="&#x168;" horiz-adv-x="719" 
d="M71 614q0 24 17 41.5t42 17.5t42 -17.5t17 -41.5v-347q0 -81 44.5 -128t126.5 -47t126 47t44 128v347q0 24 17 41.5t42 17.5t42 -17.5t17 -41.5v-350q0 -128 -73.5 -202t-214.5 -74q-142 0 -215.5 74t-73.5 201v351zM375.5 733q-16.5 12 -33.5 34q-12 16 -21.5 24
t-21.5 8q-15 0 -26 -13t-15 -40q-2 -11 -9.5 -18t-18.5 -7q-13 0 -21.5 10t-6.5 22q6 52 32 80t69 28q26 0 42 -12t33 -34q14 -17 23 -24.5t21 -7.5q15 0 25.5 13t14.5 40q1 11 9 18t19 7q13 0 21.5 -9.5t7.5 -22.5q-6 -52 -32 -80t-69 -28q-26 0 -42.5 12z" />
    <glyph glyph-name="utilde" unicode="&#x169;" 
d="M483.5 473.5q15.5 -15.5 15.5 -37.5v-389q0 -22 -15.5 -37.5t-36.5 -15.5q-22 0 -37.5 15.5t-15.5 37.5v16q-30 -32 -74 -53.5t-97 -21.5q-77 0 -116 39t-39 114v295q0 22 15.5 37.5t37.5 15.5q21 0 36.5 -15.5t15.5 -37.5v-257q0 -53 25 -75.5t72 -22.5q38 0 71 18
t53 45v292q0 22 15.5 37.5t36.5 15.5q22 0 37.5 -15.5zM298.5 586q-16.5 12 -33.5 34q-12 16 -21.5 24t-21.5 8q-15 0 -26 -13t-15 -40q-2 -11 -9.5 -18t-18.5 -7q-13 0 -21.5 10t-6.5 22q6 52 32 80t69 28q26 0 42 -12t33 -34q14 -17 23 -24.5t21 -7.5q15 0 25.5 13
t14.5 40q1 11 9 18t19 7q13 0 21.5 -9.5t7.5 -22.5q-6 -52 -32 -80t-69 -28q-26 0 -42.5 12z" />
    <glyph glyph-name="Umacron" unicode="&#x16a;" horiz-adv-x="719" 
d="M71 614q0 24 17 41.5t42 17.5t42 -17.5t17 -41.5v-347q0 -81 44.5 -128t126.5 -47t126 47t44 128v347q0 24 17 41.5t42 17.5t42 -17.5t17 -41.5v-350q0 -128 -73.5 -202t-214.5 -74q-142 0 -215.5 74t-73.5 201v351zM201 742q-9 9 -9 22t9 22t22 9h273q13 0 22 -9t9 -22
t-9 -22t-22 -9h-273q-13 0 -22 9z" />
    <glyph glyph-name="umacron" unicode="&#x16b;" 
d="M483.5 473.5q15.5 -15.5 15.5 -37.5v-389q0 -22 -15.5 -37.5t-36.5 -15.5q-22 0 -37.5 15.5t-15.5 37.5v16q-30 -32 -74 -53.5t-97 -21.5q-77 0 -116 39t-39 114v295q0 22 15.5 37.5t37.5 15.5q21 0 36.5 -15.5t15.5 -37.5v-257q0 -53 25 -75.5t72 -22.5q38 0 71 18
t53 45v292q0 22 15.5 37.5t36.5 15.5q22 0 37.5 -15.5zM124 595q-9 9 -9 22t9 22t22 9h273q13 0 22 -9t9 -22t-9 -22t-22 -9h-273q-13 0 -22 9z" />
    <glyph glyph-name="Ubreve" unicode="&#x16c;" horiz-adv-x="719" 
d="M71 614q0 24 17 41.5t42 17.5t42 -17.5t17 -41.5v-347q0 -81 44.5 -128t126.5 -47t126 47t44 128v347q0 24 17 41.5t42 17.5t42 -17.5t17 -41.5v-350q0 -128 -73.5 -202t-214.5 -74q-142 0 -215.5 74t-73.5 201v351zM274.5 738.5q-40.5 17.5 -72.5 49.5q-9 9 -9 22t9 22
t22 9q15 0 23 -9q47 -49 113 -49t112 48q8 10 23 10q13 0 22 -9t9 -22q0 -11 -9 -22q-65 -67 -157 -67q-45 0 -85.5 17.5z" />
    <glyph glyph-name="ubreve" unicode="&#x16d;" 
d="M483.5 473.5q15.5 -15.5 15.5 -37.5v-389q0 -22 -15.5 -37.5t-36.5 -15.5q-22 0 -37.5 15.5t-15.5 37.5v16q-30 -32 -74 -53.5t-97 -21.5q-77 0 -116 39t-39 114v295q0 22 15.5 37.5t37.5 15.5q21 0 36.5 -15.5t15.5 -37.5v-257q0 -53 25 -75.5t72 -22.5q38 0 71 18
t53 45v292q0 22 15.5 37.5t36.5 15.5q22 0 37.5 -15.5zM197.5 591.5q-40.5 17.5 -72.5 49.5q-9 9 -9 22t9 22t22 9q15 0 23 -9q47 -49 113 -49t112 48q8 10 23 10q13 0 22 -9t9 -22q0 -11 -9 -22q-65 -67 -157 -67q-45 0 -85.5 17.5z" />
    <glyph glyph-name="Uring" unicode="&#x16e;" horiz-adv-x="719" 
d="M71 614q0 24 17 41.5t42 17.5t42 -17.5t17 -41.5v-347q0 -81 44.5 -128t126.5 -47t126 47t44 128v347q0 24 17 41.5t42 17.5t42 -17.5t17 -41.5v-350q0 -128 -73.5 -202t-214.5 -74q-142 0 -215.5 74t-73.5 201v351zM289 877.5q30 30.5 72 30.5t71.5 -30.5t29.5 -72.5
t-29.5 -72t-71.5 -30t-72 30t-30 72t30 72.5zM397.5 842q-14.5 15 -36.5 15q-21 0 -36.5 -15t-15.5 -37q0 -21 15.5 -36.5t36.5 -15.5t36 15.5t15 36.5q0 22 -14.5 37z" />
    <glyph glyph-name="uring" unicode="&#x16f;" 
d="M483.5 473.5q15.5 -15.5 15.5 -37.5v-389q0 -22 -15.5 -37.5t-36.5 -15.5q-22 0 -37.5 15.5t-15.5 37.5v16q-30 -32 -74 -53.5t-97 -21.5q-77 0 -116 39t-39 114v295q0 22 15.5 37.5t37.5 15.5q21 0 36.5 -15.5t15.5 -37.5v-257q0 -53 25 -75.5t72 -22.5q38 0 71 18
t53 45v292q0 22 15.5 37.5t36.5 15.5q22 0 37.5 -15.5zM212 730.5q30 30.5 72 30.5t71.5 -30.5t29.5 -72.5t-29.5 -72t-71.5 -30t-72 30t-30 72t30 72.5zM320.5 695q-14.5 15 -36.5 15q-21 0 -36.5 -15t-15.5 -37q0 -21 15.5 -36.5t36.5 -15.5t36 15.5t15 36.5
q0 22 -14.5 37z" />
    <glyph glyph-name="Uhungarumlaut" unicode="&#x170;" horiz-adv-x="719" 
d="M71 614q0 24 17 41.5t42 17.5t42 -17.5t17 -41.5v-347q0 -81 44.5 -128t126.5 -47t126 47t44 128v347q0 24 17 41.5t42 17.5t42 -17.5t17 -41.5v-350q0 -128 -73.5 -202t-214.5 -74q-142 0 -215.5 74t-73.5 201v351zM277.5 724q-8.5 8 -8.5 19q0 9 4 14l64 101
q4 7 12 11.5t16 4.5q13 0 23 -10.5t10 -24.5q0 -12 -7 -20l-74 -93q-7 -10 -20 -10q-11 0 -19.5 8zM423.5 724q-8.5 8 -8.5 19q0 9 4 14l64 101q4 7 12 11.5t16 4.5q13 0 23 -10.5t10 -24.5q0 -12 -7 -20l-74 -93q-7 -10 -20 -10q-11 0 -19.5 8z" />
    <glyph glyph-name="uhungarumlaut" unicode="&#x171;" 
d="M483.5 473.5q15.5 -15.5 15.5 -37.5v-389q0 -22 -15.5 -37.5t-36.5 -15.5q-22 0 -37.5 15.5t-15.5 37.5v16q-30 -32 -74 -53.5t-97 -21.5q-77 0 -116 39t-39 114v295q0 22 15.5 37.5t37.5 15.5q21 0 36.5 -15.5t15.5 -37.5v-257q0 -53 25 -75.5t72 -22.5q38 0 71 18
t53 45v292q0 22 15.5 37.5t36.5 15.5q22 0 37.5 -15.5zM200.5 577q-8.5 8 -8.5 19q0 9 4 14l64 101q4 7 12 11.5t16 4.5q13 0 23 -10.5t10 -24.5q0 -12 -7 -20l-74 -93q-7 -10 -20 -10q-11 0 -19.5 8zM346.5 577q-8.5 8 -8.5 19q0 9 4 14l64 101q4 7 12 11.5t16 4.5
q13 0 23 -10.5t10 -24.5q0 -12 -7 -20l-74 -93q-7 -10 -20 -10q-11 0 -19.5 8z" />
    <glyph glyph-name="Uogonek" unicode="&#x172;" horiz-adv-x="719" 
d="M144.5 62q-73.5 74 -73.5 201v351q0 24 17 41.5t42 17.5t42 -17.5t17 -41.5v-347q0 -81 44.5 -128t126.5 -47t126 47t44 128v347q0 24 17 41.5t42 17.5t42 -17.5t17 -41.5v-350q0 -100 -43.5 -166.5t-126.5 -92.5q-51 -16 -78 -39.5t-27 -49.5q0 -14 10.5 -22.5
t24.5 -8.5q7 0 10 1q15 2 27.5 -8t12.5 -26q0 -12 -7.5 -21t-18.5 -12q-27 -5 -50 -5q-44 0 -75 20t-31 57q0 29 23.5 54.5t63.5 42.5h-3q-142 0 -215.5 74z" />
    <glyph glyph-name="uogonek" unicode="&#x173;" 
d="M422.5 -47q-12.5 -18 -12.5 -37q0 -14 10.5 -22.5t24.5 -8.5q6 0 11 1t10 1q13 0 23 -9.5t10 -24.5q0 -12 -7.5 -20.5t-15.5 -11.5q-24 -7 -57 -7q-44 0 -75 20t-31 57q0 35 32.5 63.5t78.5 44.5q-13 7 -21.5 20t-8.5 28v16q-30 -32 -74 -53.5t-97 -21.5q-77 0 -116 39
t-39 114v295q0 22 15.5 37.5t37.5 15.5q21 0 36.5 -15.5t15.5 -37.5v-257q0 -53 25 -75.5t72 -22.5q38 0 71 18t53 45v292q0 22 15.5 37.5t36.5 15.5q22 0 37.5 -15.5t15.5 -37.5v-389q0 -16 -8.5 -29t-22.5 -19q-33 -28 -45.5 -46z" />
    <glyph glyph-name="Wcircumflex" unicode="&#x174;" horiz-adv-x="903" 
d="M595 11q-21 17 -28 43l-116 438l-115 -438q-7 -26 -28 -43t-49 -17q-27 0 -48.5 16.5t-28.5 41.5l-155 541q-2 10 -2 18q0 26 18.5 44t43.5 18q21 0 38 -13t22 -34l120 -473l128 477q5 19 20.5 31t36.5 12q20 0 35.5 -12t20.5 -31l128 -477l119 473q5 21 22 34t38 13
q26 0 44 -18t18 -44q0 -8 -2 -18l-154 -541q-7 -25 -28.5 -41.5t-48.5 -16.5q-28 0 -49 17zM452 819l-72 -92q-7 -10 -21 -10q-12 0 -20.5 8t-8.5 21q0 9 4 14l57 88q7 11 20 18t27 7h28q14 0 27 -7t20 -18l57 -88q4 -5 4 -14q0 -13 -8.5 -21t-20.5 -8q-14 0 -21 10z" />
    <glyph glyph-name="wcircumflex" unicode="&#x175;" horiz-adv-x="754" 
d="M501 8q-19 14 -26 37l-98 309l-98 -309q-7 -23 -26 -37t-43 -14t-43 14t-26 37l-117 377q-2 8 -2 15q0 22 15 37t36 15q18 0 31.5 -10.5t18.5 -26.5l93 -320l103 315q6 19 22 30.5t36 11.5t36 -11.5t22 -30.5l103 -315l93 320q5 16 18.5 26.5t31.5 10.5q21 0 36 -15
t15 -37q0 -7 -2 -15l-117 -377q-7 -23 -26 -37t-43 -14t-43 14zM378 652l-72 -92q-7 -10 -21 -10q-12 0 -20.5 8t-8.5 21q0 9 4 14l57 88q7 11 20 18t27 7h28q14 0 27 -7t20 -18l57 -88q4 -5 4 -14q0 -13 -8.5 -21t-20.5 -8q-14 0 -21 10z" />
    <glyph glyph-name="Ycircumflex" unicode="&#x176;" horiz-adv-x="636" 
d="M582 587l-205 -310v-224q0 -24 -17 -41.5t-41 -17.5q-25 0 -42 17.5t-17 41.5v224l-206 309q-9 12 -9 31q0 23 16.5 39.5t39.5 16.5q14 0 26.5 -7t20.5 -19l171 -266l169 266q8 12 20.5 19t26.5 7q23 0 39.5 -16.5t16.5 -39.5q0 -18 -9 -30zM320 819l-72 -92
q-7 -10 -21 -10q-12 0 -20.5 8t-8.5 21q0 9 4 14l57 88q7 11 20 18t27 7h28q14 0 27 -7t20 -18l57 -88q4 -5 4 -14q0 -13 -8.5 -21t-20.5 -8q-14 0 -21 10z" />
    <glyph glyph-name="ycircumflex" unicode="&#x177;" horiz-adv-x="503" 
d="M63 -116.5q15 13.5 35 13.5h5q26 0 42.5 9.5t26.5 32.5l24 55l-172 424q-3 9 -3 19q0 22 15 37t36 15q16 0 30 -9.5t19 -23.5l130 -335l130 335q5 14 19 23.5t30 9.5q22 0 37 -15t15 -37q0 -8 -4 -20l-206 -504q-24 -59 -65 -83.5t-101 -25.5q-9 0 -15 1
q-18 2 -30.5 14.5t-12.5 31.5t15 32.5zM252 672l-72 -92q-7 -10 -21 -10q-12 0 -20.5 8t-8.5 21q0 9 4 14l57 88q7 11 20 18t27 7h28q14 0 27 -7t20 -18l57 -88q4 -5 4 -14q0 -13 -8.5 -21t-20.5 -8q-14 0 -21 10z" />
    <glyph glyph-name="Ydieresis" unicode="&#x178;" horiz-adv-x="636" 
d="M582 587l-205 -310v-224q0 -24 -17 -41.5t-41 -17.5q-25 0 -42 17.5t-17 41.5v224l-206 309q-9 12 -9 31q0 23 16.5 39.5t39.5 16.5q14 0 26.5 -7t20.5 -19l171 -266l169 266q8 12 20.5 19t26.5 7q23 0 39.5 -16.5t16.5 -39.5q0 -18 -9 -30zM173 748q-17 17 -17 42
q0 24 17 41t42 17q24 0 41 -17t17 -41q0 -25 -17 -42t-41 -17q-25 0 -42 17zM382.5 748q-17.5 17 -17.5 42q0 24 17.5 41t41.5 17t41.5 -17t17.5 -41q0 -25 -17.5 -42t-41.5 -17t-41.5 17z" />
    <glyph glyph-name="Zacute" unicode="&#x179;" horiz-adv-x="589" 
d="M57.5 19q-19.5 19 -19.5 47q0 22 13 38l334 460h-295q-21 0 -36.5 15t-15.5 36q0 22 15.5 37t36.5 15h387q27 0 46.5 -19t19.5 -47q0 -22 -13 -38l-334 -460h302q21 0 36.5 -15t15.5 -36q0 -22 -15.5 -37t-36.5 -15h-394q-27 0 -46.5 19zM302 717q-11 0 -19 8t-8 19
q0 9 8 19l97 100q10 10 24 10q13 0 22.5 -9.5t9.5 -23.5q0 -15 -11 -24l-105 -92q-7 -7 -18 -7z" />
    <glyph glyph-name="zacute" unicode="&#x17a;" horiz-adv-x="476" 
d="M55.5 15.5q-15.5 15.5 -15.5 37.5q0 19 11 33l234 305h-199q-19 0 -32.5 13.5t-13.5 32.5t13.5 32.5t32.5 13.5h293q21 0 36.5 -15t15.5 -37q0 -16 -11 -31l-236 -309h205q19 0 32.5 -13t13.5 -32t-13.5 -32.5t-32.5 -13.5h-296q-22 0 -37.5 15.5zM245 570q-11 0 -19 8
t-8 19q0 9 8 19l97 100q10 10 24 10q13 0 22.5 -9.5t9.5 -23.5q0 -15 -11 -24l-105 -92q-7 -7 -18 -7z" />
    <glyph glyph-name="Zdotaccent" unicode="&#x17b;" horiz-adv-x="589" 
d="M57.5 19q-19.5 19 -19.5 47q0 22 13 38l334 460h-295q-21 0 -36.5 15t-15.5 36q0 22 15.5 37t36.5 15h387q27 0 46.5 -19t19.5 -47q0 -22 -13 -38l-334 -460h302q21 0 36.5 -15t15.5 -36q0 -22 -15.5 -37t-36.5 -15h-394q-27 0 -46.5 19zM253.5 830.5
q17.5 17.5 41.5 17.5t41 -17.5t17 -41.5q0 -25 -17 -42t-41 -17t-41.5 17t-17.5 42q0 24 17.5 41.5z" />
    <glyph glyph-name="zdotaccent" unicode="&#x17c;" horiz-adv-x="476" 
d="M55.5 15.5q-15.5 15.5 -15.5 37.5q0 19 11 33l234 305h-199q-19 0 -32.5 13.5t-13.5 32.5t13.5 32.5t32.5 13.5h293q21 0 36.5 -15t15.5 -37q0 -16 -11 -31l-236 -309h205q19 0 32.5 -13t13.5 -32t-13.5 -32.5t-32.5 -13.5h-296q-22 0 -37.5 15.5zM196.5 683.5
q17.5 17.5 41.5 17.5t41 -17.5t17 -41.5q0 -25 -17 -42t-41 -17t-41.5 17t-17.5 42q0 24 17.5 41.5z" />
    <glyph glyph-name="Zcaron" unicode="&#x17d;" horiz-adv-x="589" 
d="M57.5 19q-19.5 19 -19.5 47q0 22 13 38l334 460h-295q-21 0 -36.5 15t-15.5 36q0 22 15.5 37t36.5 15h387q27 0 46.5 -19t19.5 -47q0 -22 -13 -38l-334 -460h302q21 0 36.5 -15t15.5 -36q0 -22 -15.5 -37t-36.5 -15h-394q-27 0 -46.5 19zM406.5 865q8.5 -8 8.5 -21
q0 -9 -4 -14l-57 -88q-7 -11 -20 -18t-27 -7h-28q-14 0 -27 7t-20 18l-57 88q-4 5 -4 14q0 13 8.5 21t20.5 8q14 0 21 -10l72 -92l72 92q7 10 21 10q12 0 20.5 -8z" />
    <glyph glyph-name="zcaron" unicode="&#x17e;" horiz-adv-x="476" 
d="M55.5 15.5q-15.5 15.5 -15.5 37.5q0 19 11 33l234 305h-199q-19 0 -32.5 13.5t-13.5 32.5t13.5 32.5t32.5 13.5h293q21 0 36.5 -15t15.5 -37q0 -16 -11 -31l-236 -309h205q19 0 32.5 -13t13.5 -32t-13.5 -32.5t-32.5 -13.5h-296q-22 0 -37.5 15.5zM349.5 718
q8.5 -8 8.5 -21q0 -9 -4 -14l-57 -88q-7 -11 -20 -18t-27 -7h-28q-14 0 -27 7t-20 18l-57 88q-4 5 -4 14q0 13 8.5 21t20.5 8q14 0 21 -10l72 -92l72 92q7 10 21 10q12 0 20.5 -8z" />
    <glyph glyph-name="longs" unicode="&#x17f;" horiz-adv-x="308" 
d="M318 656.5q9 -10.5 9 -25.5q0 -19 -10.5 -30.5t-30.5 -11.5q-6 0 -11.5 1t-9.5 1q-31 0 -49 -20.5t-18 -60.5v-463q0 -22 -15.5 -37.5t-36.5 -15.5q-22 0 -37.5 15.5t-15.5 37.5v344h-40q-19 0 -32.5 13.5t-13.5 32.5t13.5 32.5t32.5 13.5h40v27q0 79 42 123t111 44
q26 0 49 -6q14 -4 23 -14.5z" />
    <glyph glyph-name="uni018F" unicode="&#x18f;" horiz-adv-x="745" 
d="M531 635q80 -43 126.5 -121.5t46.5 -180.5t-45 -180.5t-121.5 -122t-168.5 -43.5q-142 0 -230 84.5t-105 232.5q-3 30 13.5 47t47.5 17h487q-7 60 -38.5 107t-80.5 73t-109 26q-44 0 -82 -16.5t-68 -46.5q-16 -16 -39 -16q-22 0 -38 16t-16 38q0 23 16 39q90 90 227 90
q97 0 177 -43zM498.5 138.5q58.5 47.5 77.5 126.5h-417q13 -76 65.5 -125t134.5 -49q81 0 139.5 47.5z" />
    <glyph glyph-name="uni0192" unicode="&#x192;" horiz-adv-x="444" 
d="M444.5 646q8.5 -12 8.5 -27q0 -21 -15 -36t-36 -15q-5 0 -8.5 1t-6.5 2q-11 3 -21 3q-31 0 -54.5 -21t-31.5 -57l-35 -158h83q19 0 33 -14t14 -33t-14 -32.5t-33 -13.5h-104l-81 -366q-5 -20 -20.5 -33t-36.5 -13q-24 0 -41 17t-17 40l2 17l74 338h-18q-19 0 -33 14
t-14 33t14 32.5t33 13.5h39l40 182q16 71 67.5 114t120.5 43q42 0 69 -13q14 -6 22.5 -18z" />
    <glyph glyph-name="uni019D" unicode="&#x19d;" horiz-adv-x="720" 
d="M549 655.5q17 17.5 41 17.5q25 0 42 -17.5t17 -41.5v-548q0 -29 -21 -50.5t-51 -21.5q-18 0 -33 8t-25 22l-331 462v-459q0 -110 -62 -166.5t-163 -56.5h-1q-22 0 -37.5 14.5t-15.5 36.5q0 21 13.5 37t31.5 16h2q52 1 83.5 34t31.5 87v567q0 32 22.5 54.5t54.5 22.5
q19 0 35 -8.5t27 -23.5l322 -447v420q0 24 17 41.5z" />
    <glyph glyph-name="Ohorn" unicode="&#x1a0;" horiz-adv-x="765" 
d="M713.5 592.5q-18.5 -34.5 -49.5 -57.5q59 -87 59 -202q0 -98 -43.5 -177t-121 -123.5t-176.5 -44.5t-176.5 44.5t-121 123.5t-43.5 177t43.5 177t121 123.5t176.5 44.5q78 0 143.5 -28.5t111.5 -79.5q17 13 29.5 32t15.5 36q-4 -2 -13 -2q-19 0 -31.5 13.5t-12.5 33.5
q0 21 14.5 36t35.5 15q24 0 40.5 -18.5t16.5 -50.5q0 -38 -18.5 -72.5zM498 123.5q50 31.5 77.5 86.5t27.5 123q0 69 -27.5 124t-77.5 86t-116 31t-116 -31t-77.5 -86t-27.5 -124q0 -68 27.5 -123t77.5 -86.5t116 -31.5t116 31.5z" />
    <glyph glyph-name="ohorn" unicode="&#x1a1;" horiz-adv-x="573" 
d="M524.5 463q-16.5 -33 -44.5 -56q27 -33 41 -75.5t14 -89.5q0 -70 -30.5 -128t-87 -92t-131.5 -34q-74 0 -130.5 34t-87 92t-30.5 128q0 69 30.5 127t87 92t130.5 34q97 0 163 -56q16 14 27.5 31.5t14.5 34.5q-4 -2 -13 -2q-19 0 -31.5 13t-12.5 34q0 20 14.5 35t35.5 15
q24 0 40.5 -18.5t16.5 -50.5q0 -35 -16.5 -68zM388.5 127.5q37.5 46.5 37.5 114.5q0 67 -37.5 113.5t-102.5 46.5q-64 0 -101.5 -46.5t-37.5 -113.5q0 -68 37.5 -114.5t101.5 -46.5q65 0 102.5 46.5z" />
    <glyph glyph-name="Uhorn" unicode="&#x1af;" horiz-adv-x="719" 
d="M730.5 637.5q-29.5 -42.5 -82.5 -65.5v-308q0 -128 -73.5 -202t-214.5 -74q-142 0 -215.5 74t-73.5 201v351q0 24 17 41.5t42 17.5t42 -17.5t17 -41.5v-347q0 -81 44.5 -128t126.5 -47t126 47t44 128v347q0 24 17 41.5t42 17.5q23 0 40 -15.5t19 -38.5q24 14 41.5 36.5
t20.5 45.5q-4 -2 -13 -2q-19 0 -31.5 13t-12.5 34q0 20 14.5 35t35.5 15q24 0 40.5 -18.5t16.5 -50.5q0 -47 -29.5 -89.5z" />
    <glyph glyph-name="uhorn" unicode="&#x1b0;" 
d="M563 463q-23 -38 -64 -63v-353q0 -22 -15.5 -37.5t-36.5 -15.5q-22 0 -37.5 15.5t-15.5 37.5v16q-30 -32 -74 -53.5t-97 -21.5q-77 0 -116 39t-39 114v295q0 22 15.5 37.5t37.5 15.5q21 0 36.5 -15.5t15.5 -37.5v-257q0 -53 25 -75.5t72 -22.5q38 0 71 18t53 45v292
q0 22 15.5 37.5t36.5 15.5q18 0 32 -11t19 -28q16 14 26.5 31t11.5 34q-2 -2 -12 -2q-20 0 -32.5 13t-12.5 34q0 20 14.5 35t35.5 15q24 0 41 -18.5t17 -50.5q0 -40 -23 -78z" />
    <glyph glyph-name="Gcaron" unicode="&#x1e6;" horiz-adv-x="717" 
d="M650 342q16 -16 16 -46v-143q0 -24 -7.5 -42.5t-24.5 -33.5q-103 -90 -243 -90q-97 0 -177 43.5t-126.5 122t-46.5 180.5t46.5 180.5t126.5 121.5t177 43q137 0 227 -90q16 -16 16 -39q0 -22 -15.5 -38t-38.5 -16t-39 16q-30 30 -68 46.5t-82 16.5q-65 0 -117.5 -31
t-82.5 -86t-30 -124t30 -124t82.5 -86.5t117.5 -31.5q47 0 89.5 18t68.5 42v104h-153q-21 0 -36.5 15t-15.5 37q0 21 15.5 36t36.5 15h208q30 0 46 -16zM502.5 865q8.5 -8 8.5 -21q0 -9 -4 -14l-57 -88q-7 -11 -20 -18t-27 -7h-28q-14 0 -27 7t-20 18l-57 88q-4 5 -4 14
q0 13 8.5 21t20.5 8q14 0 21 -10l72 -92l72 92q7 10 21 10q12 0 20.5 -8z" />
    <glyph glyph-name="gcaron" unicode="&#x1e7;" horiz-adv-x="580" 
d="M496.5 473.5q15.5 -15.5 15.5 -37.5v-411q0 -119 -71.5 -170t-176.5 -51q-53 0 -94.5 11t-79.5 38q-19 14 -19 36q0 18 13 31t31 13q14 0 25 -8q50 -35 124 -35q60 0 101.5 31.5t41.5 99.5v58q-29 -37 -69 -58.5t-86 -21.5q-62 0 -110.5 29t-76 85t-27.5 134
q0 76 27.5 132.5t76 86t110.5 29.5q46 0 86 -20.5t69 -58.5v20q0 22 15.5 37.5t37.5 15.5q21 0 36.5 -15.5zM354 111q35 19 53 46v180q-18 27 -53 46t-71 19q-62 0 -99 -42.5t-37 -112.5t37 -112.5t99 -42.5q36 0 71 19zM404.5 718q8.5 -8 8.5 -21q0 -9 -4 -14l-57 -88
q-7 -11 -20 -18t-27 -7h-28q-14 0 -27 7t-20 18l-57 88q-4 5 -4 14q0 13 8.5 21t20.5 8q14 0 21 -10l72 -92l72 92q7 10 21 10q12 0 20.5 -8z" />
    <glyph glyph-name="uni01EA" unicode="&#x1ea;" horiz-adv-x="765" 
d="M395 -49q-11 -17 -11 -35q0 -14 10.5 -22.5t24.5 -8.5q6 0 11 1t10 1q13 0 23 -9.5t10 -24.5q0 -12 -7.5 -20.5t-15.5 -11.5q-24 -7 -57 -7q-44 0 -75 20t-31 57q0 30 23.5 55t60.5 42q-96 2 -171 47.5t-117 123.5t-42 174q0 98 43.5 177t121 123.5t176.5 44.5
t176.5 -44.5t121 -123.5t43.5 -177q0 -90 -36.5 -163.5t-102 -120.5t-150.5 -58q-28 -23 -39 -40zM188.5 210q27.5 -55 77.5 -86.5t116 -31.5t116 31.5t77.5 86.5t27.5 123q0 69 -27.5 124t-77.5 86t-116 31t-116 -31t-77.5 -86t-27.5 -124q0 -68 27.5 -123z" />
    <glyph glyph-name="uni01EB" unicode="&#x1eb;" horiz-adv-x="573" 
d="M287 -49.5q-11 -16.5 -11 -34.5q0 -14 10.5 -22.5t24.5 -8.5q6 0 11 1t10 1q13 0 23 -9.5t10 -24.5q0 -12 -7.5 -20.5t-15.5 -11.5q-24 -7 -57 -7q-44 0 -75 20t-31 57q0 30 24 55.5t62 42.5q-69 5 -120.5 40t-79 91t-27.5 122q0 69 30.5 127t87 92t130.5 34
q75 0 131.5 -34t87 -91.5t30.5 -127.5q0 -64 -25.5 -118t-73 -89.5t-111.5 -44.5q-27 -23 -38 -39.5zM184.5 127.5q37.5 -46.5 101.5 -46.5q65 0 102.5 46.5t37.5 114.5q0 67 -37.5 113.5t-102.5 46.5q-64 0 -101.5 -46.5t-37.5 -113.5q0 -68 37.5 -114.5z" />
    <glyph glyph-name="Aringacute" unicode="&#x1fa;" horiz-adv-x="673" 
d="M646 54q0 -25 -17.5 -42.5t-42.5 -17.5q-19 0 -34 10.5t-21 27.5l-35 96h-320l-35 -96q-6 -17 -21 -27.5t-34 -10.5q-25 0 -42.5 17.5t-17.5 42.5q0 6 5 21l209 532q12 29 38 47.5t58 18.5t58 -18.5t38 -47.5l209 -532q5 -15 5 -21zM213 231h246l-123 337zM265 877.5
q30 30.5 72 30.5t71.5 -30.5t29.5 -72.5t-29.5 -72t-71.5 -30t-72 30t-30 72t30 72.5zM373.5 842q-14.5 15 -36.5 15q-21 0 -36.5 -15t-15.5 -37q0 -21 15.5 -36.5t36.5 -15.5t36 15.5t15 36.5q0 22 -14.5 37zM343 929q-11 0 -19 8t-8 19q0 9 8 19l97 100q10 10 24 10
q13 0 22.5 -9.5t9.5 -23.5q0 -15 -11 -24l-105 -92q-7 -7 -18 -7z" />
    <glyph glyph-name="aringacute" unicode="&#x1fb;" horiz-adv-x="536" 
d="M412 453q56 -42 56 -133v-273q0 -22 -15.5 -37.5t-37.5 -15.5q-21 0 -36.5 15.5t-15.5 37.5v5q-27 -31 -67.5 -47.5t-88.5 -16.5q-41 0 -80 18.5t-63.5 54.5t-24.5 87q0 53 24.5 88t63 52t80.5 17q49 0 89.5 -16t66.5 -46v72q0 42 -31 66t-82 24q-61 0 -113 -36
q-11 -7 -24 -7q-17 0 -29.5 12.5t-12.5 29.5q0 10 5 19.5t13 14.5q77 57 178 57q89 0 145 -42zM314.5 73q30.5 13 48.5 37v73q-18 24 -48.5 37t-66.5 13q-45 0 -74 -24t-29 -63t29 -62.5t74 -23.5q36 0 66.5 13zM197 730.5q30 30.5 72 30.5t71.5 -30.5t29.5 -72.5t-29.5 -72
t-71.5 -30t-72 30t-30 72t30 72.5zM305.5 695q-14.5 15 -36.5 15q-21 0 -36.5 -15t-15.5 -37q0 -21 15.5 -36.5t36.5 -15.5t36 15.5t15 36.5q0 22 -14.5 37zM275 782q-11 0 -19 8t-8 19q0 9 8 19l97 100q10 10 24 10q13 0 22.5 -9.5t9.5 -23.5q0 -15 -11 -24l-105 -92
q-7 -7 -18 -7z" />
    <glyph glyph-name="AEacute" unicode="&#x1fc;" horiz-adv-x="959" 
d="M902.5 88q15.5 -15 15.5 -36q0 -22 -15.5 -37t-36.5 -15h-349q-30 0 -46 16t-16 46v66h-255l-62 -108q-7 -11 -19.5 -18.5t-26.5 -7.5q-23 0 -39 16t-16 39q0 14 8 28l337 548q14 22 32 32t43 10h409q21 0 36.5 -15t15.5 -37q0 -21 -15.5 -36t-36.5 -15h-294v-173h287
q21 0 36.5 -15t15.5 -36q0 -22 -15.5 -37t-36.5 -15h-287v-185h294q21 0 36.5 -15zM260 231h195v338zM519 717q-11 0 -19 8t-8 19q0 9 8 19l97 100q10 10 24 10q13 0 22.5 -9.5t9.5 -23.5q0 -15 -11 -24l-105 -92q-7 -7 -18 -7z" />
    <glyph glyph-name="aeacute" unicode="&#x1fd;" horiz-adv-x="878" 
d="M534.5 113q37.5 -37 98.5 -37q25 0 51 7.5t49 22.5q11 7 23 7q17 0 29.5 -12.5t12.5 -30.5q0 -21 -19 -35q-34 -23 -73.5 -35t-77.5 -12q-132 0 -190 98q-29 -44 -83.5 -71t-119.5 -27q-52 0 -97 18t-72 54t-27 87q0 75 51 116.5t126 41.5q52 0 96.5 -15.5t73.5 -44.5v71
q0 41 -34 65t-89 24q-69 0 -126 -37q-10 -7 -23 -7q-17 0 -29.5 12.5t-12.5 30.5q0 11 5 20.5t13 14.5q80 56 182 56q66 0 111 -24t63 -69q30 44 71.5 68.5t105.5 24.5q65 0 115 -32.5t77 -87t27 -119.5q0 -23 -16 -36t-46 -13h-289q6 -57 43.5 -94zM706.5 370
q-31.5 39 -91.5 39q-57 0 -89.5 -39t-35.5 -89h250q-2 50 -33.5 89zM330.5 219.5q-34.5 13.5 -72.5 13.5q-50 0 -81.5 -20.5t-31.5 -58.5t31 -58t82 -20q34 0 63.5 15t47 38t17.5 46v7q-21 24 -55.5 37.5zM448 570q-11 0 -19 8t-8 19q0 9 8 19l97 100q10 10 24 10
q13 0 22.5 -9.5t9.5 -23.5q0 -15 -11 -24l-105 -92q-7 -7 -18 -7z" />
    <glyph glyph-name="Oslashacute" unicode="&#x1fe;" horiz-adv-x="765" 
d="M693.5 482q29.5 -68 29.5 -149q0 -98 -43.5 -177t-121 -123.5t-176.5 -44.5q-100 0 -180 47l-18 -26q-5 -7 -12.5 -11t-15.5 -4q-15 0 -25 10.5t-10 24.5t6 21l19 26q-50 47 -77.5 113t-27.5 144q0 98 43.5 177t121 123.5t176.5 44.5q93 0 170 -41l16 21q5 7 12.5 11
t15.5 4q15 0 25 -10.5t10 -24.5q0 -13 -6 -21l-15 -20q54 -47 83.5 -115zM174.5 243.5q13.5 -41.5 39.5 -73.5l274 378q-46 26 -106 26q-66 0 -116 -31t-77.5 -86t-27.5 -124q0 -48 13.5 -89.5zM498 123.5q50 31.5 77.5 86.5t27.5 123q0 51 -15.5 95t-44.5 77l-276 -382
q50 -31 115 -31q66 0 116 31.5zM388 717q-11 0 -19 8t-8 19q0 9 8 19l97 100q10 10 24 10q13 0 22.5 -9.5t9.5 -23.5q0 -15 -11 -24l-105 -92q-7 -7 -18 -7z" />
    <glyph glyph-name="oslashacute" unicode="&#x1ff;" horiz-adv-x="573" 
d="M517.5 341.5q17.5 -46.5 17.5 -99.5q0 -70 -30.5 -128t-87 -92t-131.5 -34q-82 0 -143 42l-22 -26q-8 -10 -20 -10q-11 0 -18.5 7.5t-7.5 18.5q0 9 6 17l22 27q-31 34 -48 80t-17 98q0 69 30.5 127t87 92t130.5 34q81 0 140 -39l19 23q8 10 20 10q11 0 19 -8t8 -19
t-6 -17l-19 -23q33 -34 50.5 -80.5zM171 147l192 232q-32 23 -77 23q-64 0 -101.5 -46.5t-37.5 -113.5q0 -54 24 -95zM388.5 127.5q37.5 46.5 37.5 114.5q0 58 -27 98l-193 -233q34 -26 80 -26q65 0 102.5 46.5zM293 570q-11 0 -19 8t-8 19q0 9 8 19l97 100q10 10 24 10
q13 0 22.5 -9.5t9.5 -23.5q0 -15 -11 -24l-105 -92q-7 -7 -18 -7z" />
    <glyph glyph-name="uni0218" unicode="&#x218;" horiz-adv-x="594" 
d="M42 105q0 23 16 39.5t39 16.5q20 0 34 -11q78 -58 173 -58q67 0 100.5 27t33.5 64q0 28 -19.5 46t-49.5 28.5t-83 24.5q-75 18 -122 37t-81 58.5t-34 104.5q0 55 31 99.5t88.5 70t133.5 25.5q58 0 107 -15t99 -46q11 -7 18 -19t7 -26q0 -22 -16 -38.5t-39 -16.5
q-18 0 -31 10q-35 23 -75.5 35t-79.5 12q-58 0 -90.5 -22.5t-32.5 -60.5q0 -24 19 -40t47.5 -26t80.5 -23q75 -19 123.5 -39t83 -60.5t34.5 -107.5q0 -58 -28 -104.5t-86 -74t-144 -27.5q-139 0 -235 73q-22 17 -22 44zM254.5 -272q-7.5 7 -7.5 17q0 6 4 11.5t9 10.5
q14 14 25 31.5t14 33.5q-4 -2 -14 -2q-20 0 -34 14.5t-14 36.5q0 23 16 39.5t39 16.5q26 0 44.5 -20t18.5 -55q0 -38 -18.5 -73.5t-48.5 -61.5q-8 -6 -16 -6q-10 0 -17.5 7z" />
    <glyph glyph-name="uni0219" unicode="&#x219;" horiz-adv-x="472" 
d="M40.5 55q-5.5 10 -5.5 21q0 19 13 32t32 13q13 0 25 -7q30 -20 64.5 -31.5t68.5 -11.5q46 0 70.5 15.5t24.5 43.5q0 29 -28 43.5t-82 26.5q-57 12 -93.5 25.5t-62.5 43t-26 79.5q0 40 22.5 73.5t65.5 53.5t102 20q91 0 161 -47q19 -14 19 -35q0 -17 -12.5 -29.5
t-29.5 -12.5q-13 0 -23 7q-51 33 -114 33q-42 0 -66 -14.5t-24 -39.5t26 -38t79 -25q57 -12 95 -26.5t65 -45.5t27 -84q0 -66 -53 -108t-148 -42q-103 0 -178 51q-9 6 -14.5 16zM193.5 -272q-7.5 7 -7.5 17q0 6 4 11.5t9 10.5q14 14 25 31.5t14 33.5q-4 -2 -14 -2
q-20 0 -34 14.5t-14 36.5q0 23 16 39.5t39 16.5q26 0 44.5 -20t18.5 -55q0 -38 -18.5 -73.5t-48.5 -61.5q-8 -6 -16 -6q-10 0 -17.5 7z" />
    <glyph glyph-name="uni021A" unicode="&#x21a;" horiz-adv-x="577" 
d="M247 11.5q-17 17.5 -17 41.5v511h-156q-21 0 -36.5 15t-15.5 36q0 22 15.5 37t36.5 15h429q21 0 36.5 -15t15.5 -37q0 -21 -15.5 -36t-36.5 -15h-156v-511q0 -24 -17 -41.5t-41 -17.5q-25 0 -42 17.5zM251.5 -272q-7.5 7 -7.5 17q0 6 4 11.5t9 10.5q14 14 25 31.5
t14 33.5q-4 -2 -14 -2q-20 0 -34 14.5t-14 36.5q0 23 16 39.5t39 16.5q26 0 44.5 -20t18.5 -55q0 -38 -18.5 -73.5t-48.5 -61.5q-8 -6 -16 -6q-10 0 -17.5 7z" />
    <glyph glyph-name="uni021B" unicode="&#x21b;" horiz-adv-x="319" 
d="M298 71.5q12 -12.5 12 -31.5q0 -15 -7.5 -25t-20.5 -15q-29 -12 -69 -12q-61 0 -92.5 32t-31.5 92v279h-40q-19 0 -32.5 13.5t-13.5 32.5t13.5 32.5t32.5 13.5h40v85q0 22 15.5 37.5t37.5 15.5q21 0 36.5 -15.5t15.5 -37.5v-85h58q19 0 32.5 -13.5t13.5 -32.5
t-13.5 -32.5t-32.5 -13.5h-58v-253q0 -26 12 -41.5t34 -15.5q7 0 14 1.5t12 1.5q20 0 32 -12.5zM123.5 -272q-7.5 7 -7.5 17q0 6 4 11.5t9 10.5q14 14 25 31.5t14 33.5q-4 -2 -14 -2q-20 0 -34 14.5t-14 36.5q0 23 16 39.5t39 16.5q26 0 44.5 -20t18.5 -55
q0 -38 -18.5 -73.5t-48.5 -61.5q-8 -6 -16 -6q-10 0 -17.5 7z" />
    <glyph glyph-name="uni0232" unicode="&#x232;" horiz-adv-x="636" 
d="M582 587l-205 -310v-224q0 -24 -17 -41.5t-41 -17.5q-25 0 -42 17.5t-17 41.5v224l-206 309q-9 12 -9 31q0 23 16.5 39.5t39.5 16.5q14 0 26.5 -7t20.5 -19l171 -266l169 266q8 12 20.5 19t26.5 7q23 0 39.5 -16.5t16.5 -39.5q0 -18 -9 -30zM160 742q-9 9 -9 22t9 22
t22 9h273q13 0 22 -9t9 -22t-9 -22t-22 -9h-273q-13 0 -22 9z" />
    <glyph glyph-name="uni0233" unicode="&#x233;" horiz-adv-x="503" 
d="M63 -116.5q15 13.5 35 13.5h5q26 0 42.5 9.5t26.5 32.5l24 55l-172 424q-3 9 -3 19q0 22 15 37t36 15q16 0 30 -9.5t19 -23.5l130 -335l130 335q5 14 19 23.5t30 9.5q22 0 37 -15t15 -37q0 -8 -4 -20l-206 -504q-24 -59 -65 -83.5t-101 -25.5q-9 0 -15 1
q-18 2 -30.5 14.5t-12.5 31.5t15 32.5zM92 595q-9 9 -9 22t9 22t22 9h273q13 0 22 -9t9 -22t-9 -22t-22 -9h-273q-13 0 -22 9z" />
    <glyph glyph-name="uni0237" unicode="&#x237;" horiz-adv-x="241" 
d="M1 -196q-17 0 -30 13t-13 31t11.5 31.5t27.5 13.5h3q31 0 49.5 19t18.5 60v464q0 22 15.5 37.5t37.5 15.5q21 0 36.5 -15.5t15.5 -37.5v-464q0 -79 -41 -123.5t-119 -44.5h-12z" />
    <glyph glyph-name="uni0259" unicode="&#x259;" horiz-adv-x="557" 
d="M487.5 113.5q-31.5 -57.5 -87.5 -91.5t-126 -34q-71 0 -125 34t-83.5 93.5t-29.5 135.5q0 12 16 18.5t46 6.5h311q-6 57 -47 95t-107 38q-27 0 -56 -8.5t-54 -23.5q-9 -6 -23 -6q-17 0 -29.5 12.5t-12.5 29.5q0 21 19 35q71 47 167 47q72 0 129.5 -31.5t90.5 -89.5
t33 -133q0 -70 -31.5 -127.5zM371 112.5q35 38.5 39 89.5h-272q1 -31 16 -60.5t45 -48.5t75 -19q62 0 97 38.5z" />
    <glyph glyph-name="uni0272" unicode="&#x272;" 
d="M459.5 455q39.5 -40 39.5 -115v-293q0 -22 -15.5 -37.5t-37.5 -15.5q-21 0 -36.5 15.5t-15.5 37.5v255q0 54 -25 77t-72 23q-38 0 -71 -19t-53 -46v-365q0 -79 -41 -123.5t-119 -44.5h-12q-18 1 -30.5 13.5t-12.5 30.5t12.5 31.5t29.5 13.5h2q30 1 48 20t18 59v464
q0 22 15.5 37.5t37.5 15.5q21 0 36.5 -15.5t15.5 -37.5v-19q27 32 72 55t98 23q77 0 116.5 -40z" />
    <glyph glyph-name="uni02B0" unicode="&#x2b0;" horiz-adv-x="405" 
d="M284.5 331.5q-11.5 11.5 -11.5 27.5v161q0 34 -16 48.5t-47 14.5q-24 0 -44.5 -11.5t-34.5 -27.5v-185q0 -16 -11.5 -27.5t-27.5 -11.5t-27 11.5t-11 27.5v368q0 16 11.5 27.5t27.5 11.5t27 -11.5t11 -27.5v-129q18 21 48 35.5t66 14.5q53 0 79.5 -27t26.5 -78v-184
q0 -16 -11.5 -27.5t-27.5 -11.5t-27.5 11.5z" />
    <glyph glyph-name="uni02BC" unicode="&#x2bc;" horiz-adv-x="244" 
d="M100 419q-12 0 -20.5 8.5t-8.5 21.5t9 22q19 18 32 38.5t17 38.5q-9 -3 -17 -3q-26 0 -43 17.5t-17 45.5t20 48.5t48 20.5q32 0 55 -24.5t23 -66.5q0 -45 -20.5 -86t-57.5 -73q-8 -8 -20 -8z" />
    <glyph glyph-name="circumflex" unicode="&#x2c6;" horiz-adv-x="285" 
d="M142 652l-72 -92q-7 -10 -21 -10q-12 0 -20.5 8t-8.5 21q0 9 4 14l57 88q7 11 20 18t27 7h28q14 0 27 -7t20 -18l57 -88q4 -5 4 -14q0 -13 -8.5 -21t-20.5 -8q-14 0 -21 10z" />
    <glyph glyph-name="caron" unicode="&#x2c7;" horiz-adv-x="285" 
d="M255.5 698q8.5 -8 8.5 -21q0 -9 -4 -14l-57 -88q-7 -11 -20 -18t-27 -7h-28q-14 0 -27 7t-20 18l-57 88q-4 5 -4 14q0 13 8.5 21t20.5 8q14 0 21 -10l72 -92l72 92q7 10 21 10q12 0 20.5 -8z" />
    <glyph glyph-name="uni02C9" unicode="&#x2c9;" horiz-adv-x="363" 
d="M23 600q-9 9 -9 22t9 22t22 9h273q13 0 22 -9t9 -22t-9 -22t-22 -9h-273q-13 0 -22 9z" />
    <glyph glyph-name="uni02CB" unicode="&#x2cb;" horiz-adv-x="240" 
d="M59 649q-11 9 -11 24q0 14 9.5 23.5t22.5 9.5q14 0 24 -10l97 -100q8 -10 8 -19q0 -11 -8 -19t-19 -8t-18 7z" />
    <glyph glyph-name="breve" unicode="&#x2d8;" horiz-adv-x="351" 
d="M90.5 571.5q-40.5 17.5 -72.5 49.5q-9 9 -9 22t9 22t22 9q15 0 23 -9q47 -49 113 -49t112 48q8 10 23 10q13 0 22 -9t9 -22q0 -11 -9 -22q-65 -67 -157 -67q-45 0 -85.5 17.5z" />
    <glyph glyph-name="dotaccent" unicode="&#x2d9;" horiz-adv-x="147" 
d="M32.5 663.5q17.5 17.5 41.5 17.5t41 -17.5t17 -41.5q0 -25 -17 -42t-41 -17t-41.5 17t-17.5 42q0 24 17.5 41.5z" />
    <glyph glyph-name="ring" unicode="&#x2da;" horiz-adv-x="243" 
d="M50 710.5q30 30.5 72 30.5t71.5 -30.5t29.5 -72.5t-29.5 -72t-71.5 -30t-72 30t-30 72t30 72.5zM158.5 675q-14.5 15 -36.5 15q-21 0 -36.5 -15t-15.5 -37q0 -21 15.5 -36.5t36.5 -15.5t36 15.5t15 36.5q0 22 -14.5 37z" />
    <glyph glyph-name="ogonek" unicode="&#x2db;" horiz-adv-x="206" 
d="M41 -166q-31 20 -31 57q0 36 33 64.5t81 44.5q26 9 42 10.5t8 -4.5q-38 -31 -52.5 -50t-14.5 -40q0 -14 10.5 -22.5t24.5 -8.5q6 0 11 1t10 1q13 0 23 -9.5t10 -24.5q0 -12 -7.5 -20.5t-15.5 -11.5q-24 -7 -57 -7q-44 0 -75 20z" />
    <glyph glyph-name="tilde" unicode="&#x2dc;" horiz-adv-x="321" 
d="M175.5 566q-16.5 12 -33.5 34q-12 16 -21.5 24t-21.5 8q-15 0 -26 -13t-15 -40q-2 -11 -9.5 -18t-18.5 -7q-13 0 -21.5 10t-6.5 22q6 52 32 80t69 28q26 0 42 -12t33 -34q14 -17 23 -24.5t21 -7.5q15 0 25.5 13t14.5 40q1 11 9 18t19 7q13 0 21.5 -9.5t7.5 -22.5
q-6 -52 -32 -80t-69 -28q-26 0 -42.5 12z" />
    <glyph glyph-name="hungarumlaut" unicode="&#x2dd;" horiz-adv-x="324" 
d="M25.5 557q-8.5 8 -8.5 19q0 9 4 14l64 101q4 7 12 11.5t16 4.5q13 0 23 -10.5t10 -24.5q0 -12 -7 -20l-74 -93q-7 -10 -20 -10q-11 0 -19.5 8zM171.5 557q-8.5 8 -8.5 19q0 9 4 14l64 101q4 7 12 11.5t16 4.5q13 0 23 -10.5t10 -24.5q0 -12 -7 -20l-74 -93
q-7 -10 -20 -10q-11 0 -19.5 8z" />
    <glyph glyph-name="gravecomb" unicode="&#x300;" horiz-adv-x="0" 
d="M-181 649q-11 9 -11 24q0 14 9.5 23.5t22.5 9.5q14 0 24 -10l97 -100q8 -10 8 -19q0 -11 -8 -19t-19 -8t-18 7z" />
    <glyph glyph-name="acutecomb" unicode="&#x301;" horiz-adv-x="0" 
d="M-182 550q-11 0 -19 8t-8 19q0 9 8 19l97 100q10 10 24 10q13 0 22.5 -9.5t9.5 -23.5q0 -15 -11 -24l-105 -92q-7 -7 -18 -7z" />
    <glyph glyph-name="uni0302" unicode="&#x302;" horiz-adv-x="0" 
d="M-143 652l-72 -92q-7 -10 -21 -10q-12 0 -20.5 8t-8.5 21q0 9 4 14l57 88q7 11 20 18t27 7h28q14 0 27 -7t20 -18l57 -88q4 -5 4 -14q0 -13 -8.5 -21t-20.5 -8q-14 0 -21 10z" />
    <glyph glyph-name="tildecomb" unicode="&#x303;" horiz-adv-x="0" 
d="M-145.5 566q-16.5 12 -33.5 34q-12 16 -21.5 24t-21.5 8q-15 0 -26 -13t-15 -40q-2 -11 -9.5 -18t-18.5 -7q-13 0 -21.5 10t-6.5 22q6 52 32 80t69 28q26 0 42 -12t33 -34q14 -17 23 -24.5t21 -7.5q15 0 25.5 13t14.5 40q1 11 9 18t19 7q13 0 21.5 -9.5t7.5 -22.5
q-6 -52 -32 -80t-69 -28q-26 0 -42.5 12z" />
    <glyph glyph-name="uni0304" unicode="&#x304;" horiz-adv-x="0" 
d="M-340 575q-9 9 -9 22t9 22t22 9h273q13 0 22 -9t9 -22t-9 -22t-22 -9h-273q-13 0 -22 9z" />
    <glyph glyph-name="uni0306" unicode="&#x306;" horiz-adv-x="0" 
d="M-260.5 571.5q-40.5 17.5 -72.5 49.5q-9 9 -9 22t9 22t22 9q15 0 23 -9q47 -49 113 -49t112 48q8 10 23 10q13 0 22 -9t9 -22q0 -11 -9 -22q-65 -67 -157 -67q-45 0 -85.5 17.5z" />
    <glyph glyph-name="uni0307" unicode="&#x307;" horiz-adv-x="0" 
d="M-114.5 663.5q17.5 17.5 41.5 17.5t41 -17.5t17 -41.5q0 -25 -17 -42t-41 -17t-41.5 17t-17.5 42q0 24 17.5 41.5z" />
    <glyph glyph-name="uni0308" unicode="&#x308;" horiz-adv-x="0" 
d="M-356 581q-17 17 -17 42q0 24 17 41t42 17q24 0 41 -17t17 -41q0 -25 -17 -42t-41 -17q-25 0 -42 17zM-146.5 581q-17.5 17 -17.5 42q0 24 17.5 41t41.5 17t41.5 -17t17.5 -41q0 -25 -17.5 -42t-41.5 -17t-41.5 17z" />
    <glyph glyph-name="uni0309" unicode="&#x309;" horiz-adv-x="0" 
d="M-56.5 558q-7.5 7 -7.5 16q0 8 4 19q5 12 5 29q0 22 -11.5 33.5t-29.5 11.5q-28 0 -42 -26q-7 -13 -23 -13q-11 0 -19 8t-8 19q0 6 4 14q14 23 37 35t51 12q42 0 70 -23t28 -69q0 -30 -17 -58q-8 -15 -24 -15q-10 0 -17.5 7z" />
    <glyph glyph-name="uni030A" unicode="&#x30a;" horiz-adv-x="0" 
d="M-193 710.5q30 30.5 72 30.5t71.5 -30.5t29.5 -72.5t-29.5 -72t-71.5 -30t-72 30t-30 72t30 72.5zM-84.5 675q-14.5 15 -36.5 15q-21 0 -36.5 -15t-15.5 -37q0 -21 15.5 -36.5t36.5 -15.5t36 15.5t15 36.5q0 22 -14.5 37z" />
    <glyph glyph-name="uni030B" unicode="&#x30b;" horiz-adv-x="0" 
d="M-298.5 557q-8.5 8 -8.5 19q0 9 4 14l64 101q4 7 12 11.5t16 4.5q13 0 23 -10.5t10 -24.5q0 -12 -7 -20l-74 -93q-7 -10 -20 -10q-11 0 -19.5 8zM-152.5 557q-8.5 8 -8.5 19q0 9 4 14l64 101q4 7 12 11.5t16 4.5q13 0 23 -10.5t10 -24.5q0 -12 -7 -20l-74 -93
q-7 -10 -20 -10q-11 0 -19.5 8z" />
    <glyph glyph-name="uni030C" unicode="&#x30c;" horiz-adv-x="0" 
d="M-29.5 698q8.5 -8 8.5 -21q0 -9 -4 -14l-57 -88q-7 -11 -20 -18t-27 -7h-28q-14 0 -27 7t-20 18l-57 88q-4 5 -4 14q0 13 8.5 21t20.5 8q14 0 21 -10l72 -92l72 92q7 10 21 10q12 0 20.5 -8z" />
    <glyph glyph-name="dotbelowcomb" unicode="&#x323;" horiz-adv-x="0" 
d="M-114.5 -76.5q17.5 17.5 41.5 17.5t41 -17.5t17 -41.5q0 -25 -17 -42t-41 -17t-41.5 17t-17.5 42q0 24 17.5 41.5z" />
    <glyph glyph-name="uni0326" unicode="&#x326;" horiz-adv-x="0" 
d="M-160.5 -272q-7.5 7 -7.5 17q0 6 4 11.5t9 10.5q14 14 25 31.5t14 33.5q-4 -2 -14 -2q-20 0 -34 14.5t-14 36.5q0 23 16 39.5t39 16.5q26 0 44.5 -20t18.5 -55q0 -38 -18.5 -73.5t-48.5 -61.5q-8 -6 -16 -6q-10 0 -17.5 7z" />
    <glyph glyph-name="uni0327" unicode="&#x327;" horiz-adv-x="0" 
d="M-200 -172q-14 7 -14 22q0 11 7.5 18.5t17.5 7.5q6 0 13 -4q32 -18 65 -18q23 0 39.5 9.5t16.5 26.5q0 30 -33 30q-17 0 -27 -9q-7 -5 -16 -5q-12 0 -20 8t-8 20q0 4 2 10l25 67h55l-26 -64q16 11 36 11q29 0 48 -19.5t19 -49.5q0 -37 -31 -60t-77 -23q-52 0 -92 22z" />
    <glyph glyph-name="uni0328" unicode="&#x328;" horiz-adv-x="0" 
d="M-165 -166q-31 20 -31 57q0 36 33 64.5t81 44.5q26 9 42 10.5t8 -4.5q-38 -31 -52.5 -50t-14.5 -40q0 -14 10.5 -22.5t24.5 -8.5q6 0 11 1t10 1q13 0 23 -9.5t10 -24.5q0 -12 -7.5 -20.5t-15.5 -11.5q-24 -7 -57 -7q-44 0 -75 20z" />
    <glyph glyph-name="uni037E" unicode="&#x37e;" horiz-adv-x="245" 
d="M73 371q-21 21 -21 49q0 29 21 49.5t49 20.5q29 0 49.5 -20.5t20.5 -49.5q0 -28 -21 -49t-49 -21t-49 21zM100 -129q-12 0 -20.5 8.5t-8.5 21.5t9 22q19 18 32 38.5t17 38.5q-9 -3 -17 -3q-26 0 -43 17.5t-17 45.5t20 48.5t48 20.5q32 0 55 -24.5t23 -66.5
q0 -45 -20.5 -86t-57.5 -73q-8 -8 -20 -8z" />
    <glyph glyph-name="tonos" unicode="&#x384;" horiz-adv-x="133" 
d="M19 572.5q-8 8.5 -7 19.5l15 153q2 16 13.5 27t27.5 11q17 0 29.5 -12.5t12.5 -29.5q0 -4 -2 -12l-46 -147q-2 -8 -9 -13t-16 -5q-10 0 -18 8.5z" />
    <glyph glyph-name="dieresistonos" unicode="&#x385;" horiz-adv-x="424" 
d="M181 573q-8 9 -7 20l15 152q1 16 13 27t28 11q17 0 29.5 -12.5t12.5 -29.5q0 -6 -2 -12l-45 -147q-2 -8 -9 -13t-16 -5q-11 0 -19 9zM27 581q-17 17 -17 42q0 24 17 41t42 17q24 0 41 -17t17 -41q0 -25 -17 -42t-41 -17q-25 0 -42 17zM314 581q-17 17 -17 42q0 24 17 41
t41 17q25 0 42 -17t17 -41q0 -25 -17 -42t-42 -17q-24 0 -41 17z" />
    <glyph glyph-name="Alphatonos" unicode="&#x386;" horiz-adv-x="673" 
d="M646 54q0 -25 -17.5 -42.5t-42.5 -17.5q-19 0 -34 10.5t-21 27.5l-35 96h-320l-35 -96q-6 -17 -21 -27.5t-34 -10.5q-25 0 -42.5 17.5t-17.5 42.5q0 6 5 21l209 532q12 29 38 47.5t58 18.5t58 -18.5t38 -47.5l209 -532q5 -15 5 -21zM213 231h246l-123 337zM83 465.5
q-8 8.5 -7 19.5l15 153q2 16 13.5 27t27.5 11q17 0 29.5 -12.5t12.5 -29.5q0 -4 -2 -12l-46 -147q-2 -8 -9 -13t-16 -5q-10 0 -18 8.5z" />
    <glyph glyph-name="Epsilontonos" unicode="&#x388;" horiz-adv-x="629" 
d="M139 16q-16 16 -16 46v543q0 30 16 46t46 16h349q21 0 36.5 -15t15.5 -37q0 -21 -15.5 -36t-36.5 -15h-294v-173h287q21 0 36.5 -15t15.5 -36q0 -22 -15.5 -37t-36.5 -15h-287v-185h294q21 0 36.5 -15t15.5 -36q0 -22 -15.5 -37t-36.5 -15h-349q-30 0 -46 16zM-7 465.5
q-8 8.5 -7 19.5l15 153q2 16 13.5 27t27.5 11q17 0 29.5 -12.5t12.5 -29.5q0 -4 -2 -12l-46 -147q-2 -8 -9 -13t-16 -5q-10 0 -18 8.5z" />
    <glyph glyph-name="Etatonos" unicode="&#x389;" horiz-adv-x="775" 
d="M604 11.5q-17 17.5 -17 41.5v238h-347v-238q0 -24 -17 -41.5t-41 -17.5q-25 0 -42 17.5t-17 41.5v561q0 24 17 41.5t41 17.5q25 0 42 -17.5t17 -41.5v-220h347v220q0 24 17 41.5t42 17.5q24 0 41 -17.5t17 -41.5v-561q0 -24 -17 -41.5t-42 -17.5q-24 0 -41 17.5z
M-7 465.5q-8 8.5 -7 19.5l15 153q2 16 13.5 27t27.5 11q17 0 29.5 -12.5t12.5 -29.5q0 -4 -2 -12l-46 -147q-2 -8 -9 -13t-16 -5q-10 0 -18 8.5z" />
    <glyph glyph-name="Iotatonos" unicode="&#x38a;" horiz-adv-x="311" 
d="M140 11.5q-17 17.5 -17 41.5v561q0 24 17 41.5t42 17.5q24 0 41 -17.5t17 -41.5v-561q0 -24 -17 -41.5t-41 -17.5q-25 0 -42 17.5zM-7 465.5q-8 8.5 -7 19.5l15 153q2 16 13.5 27t27.5 11q17 0 29.5 -12.5t12.5 -29.5q0 -4 -2 -12l-46 -147q-2 -8 -9 -13t-16 -5
q-10 0 -18 8.5z" />
    <glyph glyph-name="Omicrontonos" unicode="&#x38c;" horiz-adv-x="786" 
d="M105.5 510q43.5 79 121 123.5t176.5 44.5t176.5 -44.5t121 -123.5t43.5 -177t-43.5 -177t-121 -123.5t-176.5 -44.5t-176.5 44.5t-121 123.5t-43.5 177t43.5 177zM596.5 457q-27.5 55 -77.5 86t-116 31t-116 -31t-77.5 -86t-27.5 -124q0 -68 27.5 -123t77.5 -86.5
t116 -31.5t116 31.5t77.5 86.5t27.5 123q0 69 -27.5 124zM-7 465.5q-8 8.5 -7 19.5l15 153q2 16 13.5 27t27.5 11q17 0 29.5 -12.5t12.5 -29.5q0 -4 -2 -12l-46 -147q-2 -8 -9 -13t-16 -5q-10 0 -18 8.5z" />
    <glyph glyph-name="Upsilontonos" unicode="&#x38e;" horiz-adv-x="703" 
d="M648 587l-205 -310v-224q0 -24 -17 -41.5t-41 -17.5q-25 0 -42 17.5t-17 41.5v224l-206 309q-9 12 -9 31q0 23 16.5 39.5t39.5 16.5q14 0 26.5 -7t20.5 -19l171 -266l169 266q8 12 20.5 19t26.5 7q23 0 39.5 -16.5t16.5 -39.5q0 -18 -9 -30zM-7 465.5q-8 8.5 -7 19.5
l15 153q2 16 13.5 27t27.5 11q17 0 29.5 -12.5t12.5 -29.5q0 -4 -2 -12l-46 -147q-2 -8 -9 -13t-16 -5q-10 0 -18 8.5z" />
    <glyph glyph-name="Omegatonos" unicode="&#x38f;" horiz-adv-x="797" 
d="M113 208.5q-40 64.5 -40 149.5q0 94 43.5 167t121 113t176.5 40t176.5 -40t121 -113t43.5 -167q0 -85 -39 -149.5t-103 -105.5h79q21 0 36.5 -15t15.5 -37q0 -21 -15.5 -36t-36.5 -15h-157q-25 0 -42.5 17.5t-17.5 42.5q0 18 10 33t25 22q57 26 91 84t34 135
q0 64 -25 118.5t-75 87.5t-121 33t-121 -33t-75 -87.5t-25 -118.5q0 -77 34.5 -135t91.5 -84q15 -7 25 -22t10 -33q0 -25 -17.5 -42.5t-42.5 -17.5h-157q-21 0 -36.5 15t-15.5 37q0 21 15.5 36t36.5 15h80q-64 41 -104 105.5zM-7 465.5q-8 8.5 -7 19.5l15 153q2 16 13.5 27
t27.5 11q17 0 29.5 -12.5t12.5 -29.5q0 -4 -2 -12l-46 -147q-2 -8 -9 -13t-16 -5q-10 0 -18 8.5z" />
    <glyph glyph-name="iotadieresistonos" unicode="&#x390;" horiz-adv-x="255" 
d="M99.5 20q-31.5 32 -31.5 92v324q0 22 15.5 37.5t37.5 15.5q21 0 36.5 -15.5t15.5 -37.5v-305q0 -20 8.5 -34t21.5 -16l6 -1q17 -3 26.5 -16.5t9.5 -29.5q0 -19 -13 -32t-31 -14h-9q-61 0 -92.5 32zM106 593q-8 9 -7 20l15 152q1 16 13 27t28 11q17 0 29.5 -12.5
t12.5 -29.5q0 -6 -2 -12l-45 -147q-2 -8 -9 -13t-16 -5q-11 0 -19 9zM-48 601q-17 17 -17 42q0 24 17 41t42 17q24 0 41 -17t17 -41q0 -25 -17 -42t-41 -17q-25 0 -42 17zM239 601q-17 17 -17 42q0 24 17 41t41 17q25 0 42 -17t17 -41q0 -25 -17 -42t-42 -17q-24 0 -41 17z
" />
    <glyph glyph-name="Alpha" unicode="&#x391;" horiz-adv-x="673" 
d="M646 54q0 -25 -17.5 -42.5t-42.5 -17.5q-19 0 -34 10.5t-21 27.5l-35 96h-320l-35 -96q-6 -17 -21 -27.5t-34 -10.5q-25 0 -42.5 17.5t-17.5 42.5q0 6 5 21l209 532q12 29 38 47.5t58 18.5t58 -18.5t38 -47.5l209 -532q5 -15 5 -21zM213 231h246l-123 337z" />
    <glyph glyph-name="Beta" unicode="&#x392;" horiz-adv-x="648" 
d="M87 16q-16 16 -16 46v543q0 30 16 46t46 16h266q59 0 102 -22.5t65.5 -61t22.5 -86.5q0 -60 -33.5 -101.5t-82.5 -51.5q35 -5 64.5 -28.5t47 -59.5t17.5 -76q0 -80 -51.5 -130t-142.5 -50h-275q-30 0 -46 16zM375 391q44 0 69 24t25 62q0 39 -25 63t-69 24h-187v-173h187
zM380 103q48 0 75 24.5t27 68.5q0 39 -27 65.5t-75 26.5h-192v-185h192z" />
    <glyph glyph-name="Gamma" unicode="&#x393;" horiz-adv-x="552" 
d="M88 11.5q-17 17.5 -17 41.5v552q0 30 16 46t46 16h349q21 0 36.5 -15t15.5 -37q0 -21 -15.5 -36t-36.5 -15h-294v-511q0 -24 -17 -41.5t-41 -17.5q-25 0 -42 17.5z" />
    <glyph glyph-name="uni0394" unicode="&#x394;" horiz-adv-x="673" 
d="M37.5 11.5q-14.5 11.5 -14.5 31.5q0 14 6 29l210 535q11 29 38 47.5t59 18.5t59 -18.5t38 -47.5l210 -535q6 -15 6 -29q0 -20 -14.5 -31.5t-40.5 -11.5h-516q-26 0 -40.5 11.5zM336 549l-169 -446h339z" />
    <glyph glyph-name="Epsilon" unicode="&#x395;" horiz-adv-x="577" 
d="M87 16q-16 16 -16 46v543q0 30 16 46t46 16h349q21 0 36.5 -15t15.5 -37q0 -21 -15.5 -36t-36.5 -15h-294v-173h287q21 0 36.5 -15t15.5 -36q0 -22 -15.5 -37t-36.5 -15h-287v-185h294q21 0 36.5 -15t15.5 -36q0 -22 -15.5 -37t-36.5 -15h-349q-30 0 -46 16z" />
    <glyph glyph-name="Zeta" unicode="&#x396;" horiz-adv-x="589" 
d="M57.5 19q-19.5 19 -19.5 47q0 22 13 38l334 460h-295q-21 0 -36.5 15t-15.5 36q0 22 15.5 37t36.5 15h387q27 0 46.5 -19t19.5 -47q0 -22 -13 -38l-334 -460h302q21 0 36.5 -15t15.5 -36q0 -22 -15.5 -37t-36.5 -15h-394q-27 0 -46.5 19z" />
    <glyph glyph-name="Eta" unicode="&#x397;" horiz-adv-x="723" 
d="M552 11.5q-17 17.5 -17 41.5v238h-347v-238q0 -24 -17 -41.5t-41 -17.5q-25 0 -42 17.5t-17 41.5v561q0 24 17 41.5t41 17.5q25 0 42 -17.5t17 -41.5v-220h347v220q0 24 17 41.5t42 17.5q24 0 41 -17.5t17 -41.5v-561q0 -24 -17 -41.5t-42 -17.5q-24 0 -41 17.5z" />
    <glyph glyph-name="Theta" unicode="&#x398;" horiz-adv-x="765" 
d="M84.5 510q43.5 79 121 123.5t176.5 44.5t176.5 -44.5t121 -123.5t43.5 -177t-43.5 -177t-121 -123.5t-176.5 -44.5t-176.5 44.5t-121 123.5t-43.5 177t43.5 177zM575.5 457q-27.5 55 -77.5 86t-116 31t-116 -31t-77.5 -86t-27.5 -124q0 -68 27.5 -123t77.5 -86.5
t116 -31.5t116 31.5t77.5 86.5t27.5 123q0 69 -27.5 124zM224.5 303q-15.5 15 -15.5 37q0 21 15.5 36t36.5 15h243q21 0 36.5 -15t15.5 -36q0 -22 -15.5 -37t-36.5 -15h-243q-21 0 -36.5 15z" />
    <glyph glyph-name="Iota" unicode="&#x399;" horiz-adv-x="259" 
d="M88 11.5q-17 17.5 -17 41.5v561q0 24 17 41.5t42 17.5q24 0 41 -17.5t17 -41.5v-561q0 -24 -17 -41.5t-41 -17.5q-25 0 -42 17.5z" />
    <glyph glyph-name="Kappa" unicode="&#x39a;" horiz-adv-x="621" 
d="M586 50q0 -23 -15.5 -39.5t-38.5 -16.5q-25 0 -41 17l-244 267l-59 -63v-162q0 -24 -17 -41.5t-42 -17.5q-24 0 -41 17.5t-17 41.5v561q0 24 17 41.5t41 17.5q25 0 42 -17.5t17 -41.5v-267l281 308q17 18 41 18q22 0 38.5 -16t16.5 -38t-15 -37l-224 -235l245 -260
q15 -17 15 -37z" />
    <glyph glyph-name="Lambda" unicode="&#x39b;" horiz-adv-x="673" 
d="M548 5q-16 11 -23 29l-189 515l-189 -515q-7 -18 -23 -29t-35 -11q-25 0 -43.5 18.5t-18.5 43.5q0 10 5 22l208 529q12 29 38 47.5t58 18.5t58 -18.5t38 -47.5l208 -529q5 -12 5 -22q0 -25 -18 -43.5t-44 -18.5q-19 0 -35 11z" />
    <glyph glyph-name="Mu" unicode="&#x39c;" horiz-adv-x="835" 
d="M664 11.5q-17 17.5 -17 41.5v452l-199 -490q-4 -10 -12 -15.5t-19 -5.5t-19 5.5t-12 15.5l-198 490v-452q0 -24 -17 -41.5t-41 -17.5q-25 0 -42 17.5t-17 41.5v523q0 40 28.5 68.5t68.5 28.5q30 0 54.5 -17t35.5 -44l159 -394l160 394q11 27 35.5 44t54.5 17
q40 0 68.5 -28.5t28.5 -68.5v-523q0 -24 -17 -41.5t-42 -17.5q-24 0 -41 17.5z" />
    <glyph glyph-name="Nu" unicode="&#x39d;" horiz-adv-x="720" 
d="M544 2q-15 8 -25 22l-331 462v-433q0 -24 -17 -41.5t-41 -17.5q-25 0 -42 17.5t-17 41.5v543q0 32 22.5 54.5t54.5 22.5q19 0 35 -8.5t27 -23.5l322 -447v420q0 24 17 41.5t41 17.5q25 0 42 -17.5t17 -41.5v-548q0 -29 -21 -50.5t-51 -21.5q-18 0 -33 8z" />
    <glyph glyph-name="Xi" unicode="&#x39e;" horiz-adv-x="620" 
d="M58.5 579q-15.5 15 -15.5 37q0 21 15.5 36t36.5 15h429q21 0 36.5 -15t15.5 -36q0 -22 -15.5 -37t-36.5 -15h-429q-21 0 -36.5 15zM65.5 303q-15.5 15 -15.5 36q0 22 15.5 37t36.5 15h416q21 0 36.5 -15t15.5 -36q0 -22 -15.5 -37t-36.5 -15h-416q-21 0 -36.5 15z
M58.5 15q-15.5 15 -15.5 36q0 22 15.5 37t36.5 15h429q21 0 36.5 -15t15.5 -37q0 -21 -15.5 -36t-36.5 -15h-429q-21 0 -36.5 15z" />
    <glyph glyph-name="Omicron" unicode="&#x39f;" horiz-adv-x="765" 
d="M84.5 510q43.5 79 121 123.5t176.5 44.5t176.5 -44.5t121 -123.5t43.5 -177t-43.5 -177t-121 -123.5t-176.5 -44.5t-176.5 44.5t-121 123.5t-43.5 177t43.5 177zM575.5 457q-27.5 55 -77.5 86t-116 31t-116 -31t-77.5 -86t-27.5 -124q0 -68 27.5 -123t77.5 -86.5
t116 -31.5t116 31.5t77.5 86.5t27.5 123q0 69 -27.5 124z" />
    <glyph glyph-name="Pi" unicode="&#x3a0;" horiz-adv-x="723" 
d="M552 11.5q-17 17.5 -17 41.5v511h-347v-511q0 -24 -17 -41.5t-41 -17.5q-25 0 -42 17.5t-17 41.5v552q0 30 16 46t46 16h457q30 0 46 -16t16 -46v-552q0 -24 -17 -41.5t-42 -17.5q-24 0 -41 17.5z" />
    <glyph glyph-name="Rho" unicode="&#x3a1;" horiz-adv-x="608" 
d="M88 11.5q-17 17.5 -17 41.5v552q0 30 16 46t46 16h231q68 0 117 -28t75 -76t26 -105t-26 -105t-75.5 -76t-116.5 -28h-176v-196q0 -24 -17 -41.5t-41 -17.5q-25 0 -42 17.5zM430 535q-32 29 -82 29h-160v-212h160q50 0 82 29t32 77t-32 77z" />
    <glyph glyph-name="Sigma" unicode="&#x3a3;" horiz-adv-x="581" 
d="M486 103q21 0 36.5 -15t15.5 -36q0 -22 -15.5 -37t-36.5 -15h-373q-29 0 -49.5 20.5t-20.5 49.5q0 25 18 46l203 225l-201 209q-19 21 -19 48q0 29 20.5 49t48.5 20h373q21 0 36.5 -15t15.5 -37q0 -21 -15.5 -36t-36.5 -15h-291l171 -179q20 -21 20 -44t-19 -43
l-177 -195h296z" />
    <glyph glyph-name="Tau" unicode="&#x3a4;" horiz-adv-x="577" 
d="M247 11.5q-17 17.5 -17 41.5v511h-156q-21 0 -36.5 15t-15.5 36q0 22 15.5 37t36.5 15h429q21 0 36.5 -15t15.5 -37q0 -21 -15.5 -36t-36.5 -15h-156v-511q0 -24 -17 -41.5t-41 -17.5q-25 0 -42 17.5z" />
    <glyph glyph-name="Upsilon" unicode="&#x3a5;" horiz-adv-x="636" 
d="M582 587l-205 -310v-224q0 -24 -17 -41.5t-41 -17.5q-25 0 -42 17.5t-17 41.5v224l-206 309q-9 12 -9 31q0 23 16.5 39.5t39.5 16.5q14 0 26.5 -7t20.5 -19l171 -266l169 266q8 12 20.5 19t26.5 7q23 0 39.5 -16.5t16.5 -39.5q0 -18 -9 -30z" />
    <glyph glyph-name="Phi" unicode="&#x3a6;" horiz-adv-x="834" 
d="M708 148.5q-84 -70.5 -233 -82.5v-13q0 -24 -17 -41.5t-41 -17.5q-25 0 -42 17.5t-17 41.5v13q-149 12 -233 82.5t-84 184.5q0 113 84 184t233 83v14q0 24 17 41.5t42 17.5q24 0 41 -17.5t17 -41.5v-14q149 -12 233 -82.5t84 -184.5t-84 -184.5zM212 224q51 -43 146 -53
v324q-95 -10 -146 -53t-51 -109t51 -109zM621 224q51 43 51 109t-51 109t-146 53v-324q95 10 146 53z" />
    <glyph glyph-name="Chi" unicode="&#x3a7;" horiz-adv-x="661" 
d="M638 51q0 -23 -16 -40t-40 -17q-29 0 -44 18l-207 245l-208 -245q-15 -18 -44 -18q-24 0 -40 17t-16 40q0 19 14 36l221 255l-207 238q-13 17 -13 35q0 23 16 40.5t39 17.5q28 0 44 -20l194 -228l193 228q16 20 44 20q23 0 39 -17.5t16 -40.5q0 -18 -13 -35l-207 -238
l221 -255q14 -17 14 -36z" />
    <glyph glyph-name="Psi" unicode="&#x3a8;" horiz-adv-x="836" 
d="M663.5 655q17.5 18 41.5 18q25 0 42.5 -18t17.5 -42v-213q0 -116 -73 -188.5t-215 -84.5v-74q0 -24 -17 -41.5t-42 -17.5q-24 0 -41 17.5t-17 41.5v73q-142 13 -215.5 85.5t-73.5 187.5v215q0 24 17 41.5t42 17.5t42 -17.5t17 -41.5v-211q0 -72 43.5 -116t127.5 -55v382
q0 24 17 41.5t42 17.5q24 0 41 -17.5t17 -41.5v-382q83 11 126 55t43 116v210q0 24 17.5 42z" />
    <glyph glyph-name="uni03A9" unicode="&#x3a9;" horiz-adv-x="765" 
d="M81 208.5q-40 64.5 -40 149.5q0 94 43.5 167t121 113t176.5 40t176.5 -40t121 -113t43.5 -167q0 -85 -39 -149.5t-103 -105.5h79q21 0 36.5 -15t15.5 -37q0 -21 -15.5 -36t-36.5 -15h-157q-25 0 -42.5 17.5t-17.5 42.5q0 18 10 33t25 22q57 26 91 84t34 135
q0 64 -25 118.5t-75 87.5t-121 33t-121 -33t-75 -87.5t-25 -118.5q0 -77 34.5 -135t91.5 -84q15 -7 25 -22t10 -33q0 -25 -17.5 -42.5t-42.5 -17.5h-157q-21 0 -36.5 15t-15.5 37q0 21 15.5 36t36.5 15h80q-64 41 -104 105.5z" />
    <glyph glyph-name="Iotadieresis" unicode="&#x3aa;" horiz-adv-x="259" 
d="M88 11.5q-17 17.5 -17 41.5v561q0 24 17 41.5t42 17.5q24 0 41 -17.5t17 -41.5v-561q0 -24 -17 -41.5t-41 -17.5q-25 0 -42 17.5zM-16 748q-17 17 -17 42q0 24 17 41t42 17q24 0 41 -17t17 -41q0 -25 -17 -42t-41 -17q-25 0 -42 17zM193.5 748q-17.5 17 -17.5 42
q0 24 17.5 41t41.5 17t41.5 -17t17.5 -41q0 -25 -17.5 -42t-41.5 -17t-41.5 17z" />
    <glyph glyph-name="Upsilondieresis" unicode="&#x3ab;" horiz-adv-x="636" 
d="M582 587l-205 -310v-224q0 -24 -17 -41.5t-41 -17.5q-25 0 -42 17.5t-17 41.5v224l-206 309q-9 12 -9 31q0 23 16.5 39.5t39.5 16.5q14 0 26.5 -7t20.5 -19l171 -266l169 266q8 12 20.5 19t26.5 7q23 0 39.5 -16.5t16.5 -39.5q0 -18 -9 -30zM173 748q-17 17 -17 42
q0 24 17 41t42 17q24 0 41 -17t17 -41q0 -25 -17 -42t-41 -17q-25 0 -42 17zM382.5 748q-17.5 17 -17.5 42q0 24 17.5 41t41.5 17t41.5 -17t17.5 -41q0 -25 -17.5 -42t-41.5 -17t-41.5 17z" />
    <glyph glyph-name="alphatonos" unicode="&#x3ac;" horiz-adv-x="595" 
d="M575.5 63.5q9.5 -13.5 9.5 -29.5q0 -19 -13 -32t-31 -14h-9q-99 0 -118 88q-25 -40 -68 -64t-93 -24q-62 0 -111 30.5t-76.5 87.5t-27.5 135q0 77 27.5 134.5t76.5 88.5t111 31q45 0 85.5 -20.5t68.5 -58.5v20q0 22 15.5 37.5t37.5 15.5t37.5 -15.5t15.5 -37.5v-305
q0 -21 8 -34.5t22 -15.5l6 -1q17 -3 26.5 -16.5zM408 336q-18 28 -53 46.5t-72 18.5q-62 0 -99 -44.5t-37 -115.5t37 -115.5t99 -44.5q37 0 72 18t53 46v191zM277 592.5q-8 8.5 -7 19.5l15 153q2 16 13.5 27t27.5 11q17 0 29.5 -12.5t12.5 -29.5q0 -4 -2 -12l-46 -147
q-2 -8 -9 -13t-16 -5q-10 0 -18 8.5z" />
    <glyph glyph-name="epsilontonos" unicode="&#x3ad;" horiz-adv-x="484" 
d="M94.5 27.5q-57.5 39.5 -57.5 103.5q0 35 21 60.5t52 39.5t61 16q-48 8 -86 39t-38 77q0 61 56.5 96t157.5 35q99 0 168 -54q7 -5 11.5 -14t4.5 -19q0 -17 -12.5 -29.5t-29.5 -12.5q-13 0 -24 8q-50 36 -119 36q-46 0 -75 -17t-29 -43q0 -31 27.5 -47t78.5 -16h42
q20 0 33.5 -12t13.5 -31t-13 -30t-33 -11h-43q-115 0 -115 -63q0 -30 27.5 -48t78.5 -18q64 0 125 42q11 8 26 8q20 0 33.5 -13.5t13.5 -33.5q0 -23 -21 -38q-73 -50 -177 -50q-101 0 -158.5 39.5zM246 592.5q-8 8.5 -7 19.5l15 153q2 16 13.5 27t27.5 11q17 0 29.5 -12.5
t12.5 -29.5q0 -4 -2 -12l-46 -147q-2 -8 -9 -13t-16 -5q-10 0 -18 8.5z" />
    <glyph glyph-name="etatonos" unicode="&#x3ae;" 
d="M459.5 455q39.5 -40 39.5 -115v-477q0 -22 -15.5 -37.5t-36.5 -15.5q-22 0 -37.5 15.5t-15.5 37.5v439q0 54 -25 77t-72 23q-38 0 -71 -19t-53 -46v-290q0 -22 -15.5 -37.5t-36.5 -15.5q-22 0 -37.5 15.5t-15.5 37.5v389q0 22 15.5 37.5t36.5 15.5q22 0 37.5 -15.5
t15.5 -37.5v-19q27 32 72 55t98 23q77 0 116.5 -40zM268 592.5q-8 8.5 -7 19.5l15 153q2 16 13.5 27t27.5 11q17 0 29.5 -12.5t12.5 -29.5q0 -4 -2 -12l-46 -147q-2 -8 -9 -13t-16 -5q-10 0 -18 8.5z" />
    <glyph glyph-name="iotatonos" unicode="&#x3af;" horiz-adv-x="255" 
d="M99.5 20q-31.5 32 -31.5 92v324q0 22 15.5 37.5t37.5 15.5q21 0 36.5 -15.5t15.5 -37.5v-305q0 -20 8.5 -34t21.5 -16l6 -1q17 -3 26.5 -16.5t9.5 -29.5q0 -19 -13 -32t-31 -14h-9q-61 0 -92.5 32zM104 592.5q-8 8.5 -7 19.5l15 153q2 16 13.5 27t27.5 11
q17 0 29.5 -12.5t12.5 -29.5q0 -4 -2 -12l-46 -147q-2 -8 -9 -13t-16 -5q-10 0 -18 8.5z" />
    <glyph glyph-name="upsilondieresistonos" unicode="&#x3b0;" horiz-adv-x="570" 
d="M123 49.5q-55 61.5 -55 165.5v221q0 22 15.5 37.5t37.5 15.5q21 0 36.5 -15.5t15.5 -37.5v-219q0 -62 29 -99t81 -37q66 0 103 48.5t37 125.5q0 40 -9.5 81t-27.5 77q-6 12 -6 24q0 22 15 37t37 15q14 0 26 -7t19 -19q28 -46 41.5 -100t13.5 -108q0 -77 -30 -137.5
t-86.5 -95t-132.5 -34.5q-105 0 -160 61.5zM269 593q-8 9 -7 20l15 152q1 16 13 27t28 11q17 0 29.5 -12.5t12.5 -29.5q0 -6 -2 -12l-45 -147q-2 -8 -9 -13t-16 -5q-11 0 -19 9zM115 601q-17 17 -17 42q0 24 17 41t42 17q24 0 41 -17t17 -41q0 -25 -17 -42t-41 -17
q-25 0 -42 17zM402 601q-17 17 -17 42q0 24 17 41t41 17q25 0 42 -17t17 -41q0 -25 -17 -42t-42 -17q-24 0 -41 17z" />
    <glyph glyph-name="alpha" unicode="&#x3b1;" horiz-adv-x="595" 
d="M575.5 63.5q9.5 -13.5 9.5 -29.5q0 -19 -13 -32t-31 -14h-9q-99 0 -118 88q-25 -40 -68 -64t-93 -24q-62 0 -111 30.5t-76.5 87.5t-27.5 135q0 77 27.5 134.5t76.5 88.5t111 31q45 0 85.5 -20.5t68.5 -58.5v20q0 22 15.5 37.5t37.5 15.5t37.5 -15.5t15.5 -37.5v-305
q0 -21 8 -34.5t22 -15.5l6 -1q17 -3 26.5 -16.5zM408 336q-18 28 -53 46.5t-72 18.5q-62 0 -99 -44.5t-37 -115.5t37 -115.5t99 -44.5q37 0 72 18t53 46v191z" />
    <glyph glyph-name="beta" unicode="&#x3b2;" horiz-adv-x="581" 
d="M157.5 -174.5q-15.5 -15.5 -36.5 -15.5q-22 0 -37.5 15.5t-15.5 37.5v588q0 76 34.5 127t89 75t115.5 24q101 0 160.5 -48t59.5 -132q0 -62 -41.5 -102.5t-97.5 -50.5q35 -3 70.5 -23.5t59.5 -58.5t24 -91q0 -52 -27 -94t-73.5 -65.5t-102.5 -23.5q-106 0 -166 78v-203
q0 -22 -15.5 -37.5zM228.5 99q35.5 -18 76.5 -18q61 0 95 29t34 79t-37 77t-96 27q-18 1 -31 14.5t-13 31.5t12 31.5t29 15.5q54 0 87 25.5t33 72.5q0 45 -31.5 72t-79.5 27q-59 0 -96.5 -35t-37.5 -97v-306q20 -28 55.5 -46z" />
    <glyph glyph-name="gamma" unicode="&#x3b3;" horiz-adv-x="503" 
d="M214.5 -174.5q-15.5 15.5 -15.5 37.5v72q0 128 -41.5 253.5t-110.5 226.5q-9 14 -9 27q0 20 14 33.5t34 13.5q11 0 21 -5t16 -13q54 -70 95 -168t50 -179q39 58 68.5 144.5t36.5 172.5q2 20 17 34t35 14q23 0 38.5 -17t13.5 -40q-10 -111 -57 -225t-116 -202v-142
q0 -22 -15.5 -37.5t-37.5 -15.5q-21 0 -36.5 15.5z" />
    <glyph glyph-name="delta" unicode="&#x3b4;" horiz-adv-x="573" 
d="M416 429.5q48 -23.5 83.5 -73.5t35.5 -132q0 -62 -29.5 -116t-84.5 -87t-129 -33q-77 0 -134.5 33.5t-88.5 88.5t-31 118q0 69 34.5 120.5t90.5 78.5q-32 18 -49.5 43t-17.5 62q0 40 22.5 73.5t65.5 53.5t102 20q90 0 160 -47q19 -14 19 -35q0 -17 -12.5 -29.5
t-29.5 -12.5q-13 0 -23 7q-51 33 -114 33q-41 0 -65 -16.5t-24 -42.5q0 -22 23.5 -34t77.5 -28q70 -21 118 -44.5zM365.5 102q32.5 21 50 54t17.5 68q0 49 -22.5 80t-56 48.5t-86.5 34.5q-59 -21 -90 -63t-31 -96q0 -37 17 -71t49.5 -55t75.5 -21q44 0 76.5 21z" />
    <glyph glyph-name="epsilon" unicode="&#x3b5;" horiz-adv-x="484" 
d="M94.5 27.5q-57.5 39.5 -57.5 103.5q0 35 21 60.5t52 39.5t61 16q-48 8 -86 39t-38 77q0 61 56.5 96t157.5 35q99 0 168 -54q7 -5 11.5 -14t4.5 -19q0 -17 -12.5 -29.5t-29.5 -12.5q-13 0 -24 8q-50 36 -119 36q-46 0 -75 -17t-29 -43q0 -31 27.5 -47t78.5 -16h42
q20 0 33.5 -12t13.5 -31t-13 -30t-33 -11h-43q-115 0 -115 -63q0 -30 27.5 -48t78.5 -18q64 0 125 42q11 8 26 8q20 0 33.5 -13.5t13.5 -33.5q0 -23 -21 -38q-73 -50 -177 -50q-101 0 -158.5 39.5z" />
    <glyph glyph-name="zeta" unicode="&#x3b6;" horiz-adv-x="487" 
d="M109 54.5q-71 54.5 -71 156.5q0 109 72 202t200 162h-216q-19 0 -32.5 13.5t-13.5 32.5t13.5 32.5t32.5 13.5h309q20 0 34.5 -14.5t14.5 -34.5q0 -28 -24 -42q-129 -74 -205 -165.5t-76 -191.5q0 -126 168 -126q139 0 139 -110q0 -43 -35 -118q-6 -12 -18 -20t-27 -8
q-20 0 -34.5 14.5t-14.5 34.5q0 10 5 20q15 33 15 54q0 17 -11 28.5t-32 11.5q-122 0 -193 54.5z" />
    <glyph glyph-name="eta" unicode="&#x3b7;" 
d="M459.5 455q39.5 -40 39.5 -115v-477q0 -22 -15.5 -37.5t-36.5 -15.5q-22 0 -37.5 15.5t-15.5 37.5v439q0 54 -25 77t-72 23q-38 0 -71 -19t-53 -46v-290q0 -22 -15.5 -37.5t-36.5 -15.5q-22 0 -37.5 15.5t-15.5 37.5v389q0 22 15.5 37.5t36.5 15.5q22 0 37.5 -15.5
t15.5 -37.5v-19q27 32 72 55t98 23q77 0 116.5 -40z" />
    <glyph glyph-name="theta" unicode="&#x3b8;" horiz-adv-x="573" 
d="M422 633q56 -46 84.5 -124t28.5 -175t-28.5 -175.5t-84.5 -124.5t-136 -46q-79 0 -135 46t-84.5 125t-28.5 175t28.5 174.5t84.5 124.5t135 46q80 0 136 -46zM188 532q-34 -54 -40 -151h277q-13 205 -139 205q-64 0 -98 -54zM425 289h-277q13 -208 138 -208
q127 0 139 208z" />
    <glyph glyph-name="iota" unicode="&#x3b9;" horiz-adv-x="255" 
d="M99.5 20q-31.5 32 -31.5 92v324q0 22 15.5 37.5t37.5 15.5q21 0 36.5 -15.5t15.5 -37.5v-305q0 -20 8.5 -34t21.5 -16l6 -1q17 -3 26.5 -16.5t9.5 -29.5q0 -19 -13 -32t-31 -14h-9q-61 0 -92.5 32z" />
    <glyph glyph-name="kappa" unicode="&#x3ba;" horiz-adv-x="526" 
d="M490 47q0 -23 -14.5 -38t-36.5 -15q-26 0 -40 17l-157 187l-69 -65v-86q0 -22 -15.5 -37.5t-37.5 -15.5q-21 0 -36.5 15.5t-15.5 37.5v389q0 22 15.5 37.5t37.5 15.5q21 0 36.5 -15.5t15.5 -37.5v-187l226 227q13 13 34 13q19 0 33 -14.5t14 -34.5q0 -19 -14 -33
l-147 -146l159 -180q12 -13 12 -34z" />
    <glyph glyph-name="lambda" unicode="&#x3bb;" horiz-adv-x="503" 
d="M400 3.5q-14 9.5 -19 23.5l-130 335l-130 -335q-5 -14 -19 -23.5t-30 -9.5q-21 0 -36 15t-15 37q0 10 3 19l172 423l-24 55q-10 24 -26.5 33.5t-42.5 9.5h-6q-20 0 -34.5 13.5t-14.5 32.5q0 18 12.5 31t30.5 15q5 1 15 1q60 -2 101.5 -26.5t64.5 -82.5l206 -504
q4 -12 4 -20q0 -22 -15 -37t-37 -15q-16 0 -30 9.5z" />
    <glyph glyph-name="uni03BC" unicode="&#x3bc;" horiz-adv-x="581" 
d="M561.5 63.5q9.5 -13.5 9.5 -29.5q0 -19 -13 -32t-31 -14h-9q-97 0 -119 86q-25 -38 -62.5 -62t-80.5 -24q-32 0 -52.5 10t-30.5 26v-161q0 -22 -15.5 -37.5t-37.5 -15.5q-21 0 -36.5 15.5t-15.5 37.5v573q0 22 15.5 37.5t37.5 15.5q21 0 36.5 -15.5t15.5 -37.5v-257
q0 -99 98 -99q37 0 70 18.5t53 45.5v292q0 22 15.5 37.5t36.5 15.5q22 0 37.5 -15.5t15.5 -37.5v-305q0 -21 8 -34.5t22 -15.5l6 -1q17 -3 26.5 -16.5z" />
    <glyph glyph-name="nu" unicode="&#x3bd;" horiz-adv-x="503" 
d="M207 9q-22 15 -32 39l-150 370q-4 12 -4 19q0 22 15 37t36 15q16 0 29.5 -9.5t18.5 -23.5l136 -351q49 70 79.5 158.5t37.5 177.5q1 20 16.5 34t35.5 14q23 0 38.5 -17t13.5 -40q-10 -101 -50 -206t-100 -194q-11 -17 -30 -27.5t-41 -10.5q-27 0 -49 15z" />
    <glyph glyph-name="xi" unicode="&#x3be;" horiz-adv-x="487" 
d="M76.5 272.5q38.5 39.5 89.5 51.5q-46 8 -81.5 39t-35.5 82q0 42 28.5 78t72.5 52h-52q-19 0 -32.5 13.5t-13.5 32.5t13.5 32.5t32.5 13.5h302q19 0 32.5 -13.5t13.5 -32.5t-13.5 -32.5t-32.5 -13.5h-149q-40 -10 -66.5 -38t-26.5 -62q0 -43 37 -66.5t95 -23.5h106
q18 0 31.5 -13t13.5 -32t-13.5 -32t-31.5 -13h-106q-66 0 -104.5 -25t-38.5 -78q0 -99 168 -99q139 0 139 -110q0 -24 -8.5 -51.5t-26.5 -65.5q-6 -13 -18 -21t-27 -8q-21 0 -36 15t-15 35q0 8 4 20q18 45 18 65q0 15 -10 21.5t-33 6.5q-129 0 -196.5 43t-67.5 126
q0 64 38.5 103.5z" />
    <glyph glyph-name="omicron" unicode="&#x3bf;" horiz-adv-x="573" 
d="M155.5 22q-56.5 34 -87 92t-30.5 128q0 69 30.5 127t87 92t130.5 34q75 0 131.5 -34t87 -91.5t30.5 -127.5t-30.5 -128t-87 -92t-131.5 -34q-74 0 -130.5 34zM388.5 127.5q37.5 46.5 37.5 114.5q0 67 -37.5 113.5t-102.5 46.5q-64 0 -101.5 -46.5t-37.5 -113.5
q0 -68 37.5 -114.5t101.5 -46.5q65 0 102.5 46.5z" />
    <glyph glyph-name="pi" unicode="&#x3c0;" horiz-adv-x="610" 
d="M593.5 469.5q13.5 -13.5 13.5 -32.5t-13.5 -32.5t-32.5 -13.5h-40v-344q0 -22 -15.5 -37.5t-37.5 -15.5q-21 0 -36.5 15.5t-15.5 37.5v344h-222v-344q0 -22 -15.5 -37.5t-36.5 -15.5q-22 0 -37.5 15.5t-15.5 37.5v344h-40q-19 0 -32.5 13.5t-13.5 32.5t13.5 32.5
t32.5 13.5h512q19 0 32.5 -13.5z" />
    <glyph glyph-name="rho" unicode="&#x3c1;" horiz-adv-x="578" 
d="M173 -137q0 -22 -15.5 -37.5t-36.5 -15.5q-22 0 -37.5 15.5t-15.5 37.5v379q0 70 28.5 127.5t82.5 91.5t125 34q72 0 126 -34t83 -91.5t29 -127.5q0 -78 -27 -135.5t-75.5 -88t-111.5 -30.5q-46 0 -86 20t-69 59v-204zM398 355.5q-35 46.5 -95 46.5t-95 -46.5t-35 -113.5
v-96q18 -27 53 -46t71 -19q62 0 99 45t37 116q0 67 -35 113.5z" />
    <glyph glyph-name="uni03C2" unicode="&#x3c2;" horiz-adv-x="488" 
d="M70 372q32 58 89 90.5t129 32.5q93 0 153 -52q8 -6 12.5 -16t4.5 -20q0 -19 -13.5 -33t-33.5 -14q-18 0 -31 11q-37 31 -87 31q-66 0 -106 -44.5t-40 -115.5q0 -77 44.5 -113t121.5 -36q74 0 109.5 -24t35.5 -74q0 -49 -35 -129q-6 -13 -18 -21t-27 -8q-20 0 -34.5 14.5
t-14.5 34.5q0 7 4 19q19 45 19 67q0 15 -11 21.5t-33 6.5q-123 0 -196.5 63.5t-73.5 178.5q0 72 32 130z" />
    <glyph glyph-name="sigma" unicode="&#x3c3;" horiz-adv-x="573" 
d="M543 404q-14 -14 -33 -14h-60q38 -31 57.5 -72.5t19.5 -98.5q0 -64 -28.5 -116.5t-83 -83.5t-129.5 -31q-74 0 -130.5 34t-87 92t-30.5 128q0 67 31 122t89.5 87t137.5 32h214q19 0 33 -13.5t14 -32.5t-14 -33zM388.5 127q37.5 46 37.5 111q0 51 -22.5 90.5t-60.5 61.5
h-47q-47 0 -81 -21t-51 -54.5t-17 -72.5q0 -68 37.5 -114.5t101.5 -46.5q65 0 102.5 46z" />
    <glyph glyph-name="tau" unicode="&#x3c4;" horiz-adv-x="466" 
d="M435.5 469.5q13.5 -13.5 13.5 -32.5t-13.5 -32.5t-32.5 -13.5h-123v-253q0 -26 12 -41.5t34 -15.5q7 0 17 2q8 2 12 2q17 0 29 -13t12 -32q0 -13 -7.5 -24t-19.5 -16q-33 -12 -70 -12q-61 0 -92.5 32t-31.5 92v279h-112q-19 0 -32.5 13.5t-13.5 32.5t13.5 32.5t32.5 13.5
h340q19 0 32.5 -13.5z" />
    <glyph glyph-name="upsilon" unicode="&#x3c5;" horiz-adv-x="570" 
d="M123 49.5q-55 61.5 -55 165.5v221q0 22 15.5 37.5t37.5 15.5q21 0 36.5 -15.5t15.5 -37.5v-219q0 -62 29 -99t81 -37q66 0 103 48.5t37 125.5q0 40 -9.5 81t-27.5 77q-6 12 -6 24q0 22 15 37t37 15q14 0 26 -7t19 -19q28 -46 41.5 -100t13.5 -108q0 -77 -30 -137.5
t-86.5 -95t-132.5 -34.5q-105 0 -160 61.5z" />
    <glyph glyph-name="phi" unicode="&#x3c6;" horiz-adv-x="685" 
d="M580 60q-67 -64 -185 -70v-127q0 -22 -15.5 -37.5t-36.5 -15.5q-22 0 -37.5 15.5t-15.5 37.5v127q-118 6 -185 73.5t-67 186.5q0 73 34.5 129.5t95.5 93.5q11 7 24 7q20 0 34 -13.5t14 -33.5q0 -12 -5.5 -22.5t-14.5 -16.5q-36 -26 -54.5 -64t-18.5 -80q0 -82 40 -125.5
t103 -43.5v336q0 30 22 51.5t52 20.5q138 -4 210.5 -70.5t72.5 -182.5q0 -112 -67 -176zM498 120.5q40 39.5 40 115.5q0 75 -40 114.5t-103 39.5v-309q63 0 103 39.5z" />
    </font>
</defs>
</svg>
